вход на сайт

Имя пользователя :
Пароль :

Восстановление пароля Регистрация
(2008) Eric Clapton / 461 Ocean Boulevard (Deluxe Edition, 2CD, Japan SHM-CD, 4988005525468, 1974) (Rock, Blues Rock) [FLAC (Tracks+.cue), lossless]
Рейтинг:
(голосов: 1)



[img]{THEME}/images/logopost.png[/img]




Исполнитель:Eric Clapton
Страна: England
Альбом:461 Ocean Boulevard (Deluxe Edition, 2CD)
Издатель (Лейбл) : Japan (Polydor, Universal Music, UICY-93630/1 (4988005525468))
Тип альбома:Студийный
Год выпуска:2008 (1974)
Жанр:Rock, Blues Rock
Формат: FLAC (Tracks+.cue)
Битрейт: lossless
Log-файл: Присутствует
Наличие сканов в содержимом раздачи: да (TIFF, 300Dpi, 459 GB)
Продолжительность: 02:22:19

Об издании: Альбом « 461 Ocean Boulevard» - второй студийный сольный альбом легендарного гитариста, певца и автора песен Eric Clapton, был выпущен в июле 1974 года.В 2004 альбом был ремастирован и в двухдисковом делюкс исполнении. На втором диске находится концертная запись от 4-5 декабря 1974 года из HMV Hammersmith Apollo, Лондон. На первом диске находится оригинальный диск и 5 треков со студийными джемсейшин. В 2008 году этот вариант издания был выпущен в Японии на SHM-CD (в данной раздаче).




Wikipedia | YouTube | Facebook | Official page


Disc 1 - CD - 461 Ocean Boulevard (UICY-93630) ▼
Продолжительность: 01:09:00

Tреклист:

01. Motherless Children - 4:53
02. Give Me Strength - 2:54
03. Willie And The Hand Jive - 3:32
04. Get Ready - 3:48
05. I Shot The Sheriff - 4:25
06. I Cant Hold Out - 4:14
07. Please Be With Me - 3:26
08. Let It Grow - 5:01
09. Steady Rollin Man - 3:15
10. Mainline Florida - 4:10
11. Walkin Down The Road (Session Out-Take) - 5:17
12. Aint That Lovin You (Session Out-Take) - 5:31
13. Meet Me (Down At The Bottom) - (Session Out-Take) - 7:00
14. Eric After Hours Blues (Session Out-Take) - 4:24
15. B Minor Jam (Session Out-Take) - 7:11


Отчет XLD ▼ Text
X Lossless Decoder version 20100218 (116.4)

XLD extraction logfile from 2010-02-28 18:53:18 +0500

Eric Clapton / 461 Ocean Boulevard

Used drive : OPTIARC DVD RW AD-5670S (revision 2AHH)

Use cdparanoia mode : YES (CDParanoia III 10.2 engine)
Disable audio cache : OK for the drive with cache less than 2750KB
Make use of C2 pointers : NO
Read offset correction : 48
Max retry count : 100

TOC of the extracted CD
Track | Start | Length | Start sector | End sector
---------------------------------------------------------
1 | 00:00:00 | 04:53:36 | 0 | 22010
2 | 04:53:36 | 02:54:12 | 22011 | 35072
3 | 07:47:48 | 03:31:46 | 35073 | 50943
4 | 11:19:19 | 03:47:54 | 50944 | 68022
5 | 15:06:73 | 04:25:05 | 68023 | 87902
6 | 19:32:03 | 04:14:24 | 87903 | 106976
7 | 23:46:27 | 03:26:35 | 106977 | 122461
8 | 27:12:62 | 05:00:40 | 122462 | 145001
9 | 32:13:27 | 03:14:50 | 145002 | 159601
10 | 35:28:02 | 04:09:40 | 159602 | 178316
11 | 39:37:42 | 05:17:21 | 178317 | 202112
12 | 44:54:63 | 05:30:53 | 202113 | 226915
faf150355f18c6135fd136937eaafcf16ff77ea4(2008) Eric Clapton / 461 Ocean Boulevard (Deluxe Edition, 2CD, Japan SHM-CD, 4988005525468, 1974) (Rock, Blues Rock) [FLAC (Tracks+.cue), lossless] (2008) Eric Clapton / 461 Ocean Boulevard (Deluxe Edition, 2CD, Japan SHM-CD, 4988005525468, 1974) (Rock, Blues Rock) [FLAC (Tracks+.cue), lossless] " />

Аплоадер: Админ, дата: 13-04-2012, 22:15, торрент скачан: 359 раз

Понравилась раздача? Посмотрите эти:
  • (2013) VA / Crossroads Guitar Festival Eric Clapton (2CD) (Blues, Blues Roc ...
  • (2013) Kanye West | Yeezus (Rap|Experimental Hip-Hop) [FLAC (tracks+.cue), ...
  • (2013) Paramore / Paramore (Japan Edition) (Alternative Rock) [FLAC (tracks ...
  • (2013) Bullet For My Valentine / Temper Temper (Japanese Deluxe Edition) (M ...
  • (2013) Bon Jovi / What About Now (Deluxe Edition) (Hard Rock) [FLAC (tracks ...
  • (2012) Taylor Swift / Red (Target Exclusive Deluxe Edition) + Booklet (Pop ...
  • (1992) ERIC CLAPTON / Unplugged MTV (Classic Rock/Blues) [MP3, 192/CBR]
  • (2006) JJ Cale & Eric Clapton / The Road To Escondido (Blues ) [Mp3, 192 kb ...
  • (1997) Eric Clapton / Unplugged (blues) [wav, DTS]
  • (2010) Faithless / Not Going Home (Trance/House) [FLAC (tracks), lossless]
  • (2011) Daughtry / Break the Spell (Deluxe Edition) (Alt. Rock / Modern Rock ...
  • (2011) Simon & Garfunkel / Bridge Over Troubled Water (40th Anniversary Edi ...
  • (2011) Rolling Stones / Some Girls (2CD Deluxe Digipack Edition, A&M, 278 4 ...
  • (2012) Bruce Springsteen / Wrecking Ball (Folk Rock) [FLAC (tracks+.cue),l ...
  • (2010) Joan Jett & The Blackhearts / Greatest Hits (Rock, Hard Rock, Punk R ...
  • (2012) Linkin Park / LP Underground 12 (Alternative Rock) [FLAC (tracks+.cu ...
  • Eric Clapton and Steve Winwood / Live from Madison Square Garden [2009 , Bl ...
  • (2012) Young Guns / Bones (Alternative Rock) [FLAC (tracks +.cue), lossless ...
  • (2011) 7eventh Time Down / Alive In You (Alternative Rock/Modern Rock/Chris ...
  • (2012) No Doubt / Push And Shove (Deluxe Edition) (2 CD) (Alternative Rock, ...
  • Информация
    Посетители, находящиеся в группе Гости, не могут оставлять комментарии к данной публикации.