вход на сайт

Имя пользователя :
Пароль :

Восстановление пароля Регистрация
(2011) Blues Cousins / KGB Blues (Blues Rock) [FLAC (image+.cue), lossless]
Рейтинг:
(голосов: 1)



[img]{THEME}/images/logopost.png[/img]



Исполнитель: Blues Cousins
Альбом: KGB Blues
Страна: Россия
Тип альбома: Студийный
Год выпуска: 2011
Жанр: Blues Rock
Формат: FLAC (image+.cue)
Битрейт: lossless
Продолжительность: 00:44:43

Tреклист:
1. KGB Blues (03:55)
2. The Brother (06:36)
3. Im Mad (03:40)
4. Love Matters (04:24)
5. What Would You Say (02:57)
6. RocknRoll (version 1) (06:16)
7. You Dont Know (04:15)
8. The Blues That Rocks (03:04)
9. The Chocolate (06:25)
10. RocknRoll (version 2) (03:07)

Лог создания рипа ▼TextExact Audio Copy V0.99 prebeta 5 from 4. May 2009

Отчёт EAC об извлечении, выполненном 1. октября 2011, 14:14

Blues Cousins / KGB Blues

Дисковод: TSSTcorpCDDVDW SH-S222A Adapter: 4 ID: 0

Режим чтения : Достоверность
Использование точного потока : Да
Отключение кэша аудио : Да
Использование указателей C2 : Нет

Коррекция смещения при чтении : 6
Способность читать области Lead-in и Lead-out : Нет
Заполнение пропущенных сэмплов тишиной : Да
Удаление блоков с тишиной в начале и конце : Нет
При вычислениях CRC использовались нулевые сэмплы : Да
Интерфейс : Встроенный Win32-интерфейс для Win NT/2000

Выходной формат : Внутренние WAV-операции
Формат сэмплов : 44.100 Гц; 16 бит; стерео


TOC извлечённого CD

Трек | Старт | Длительность | Начальный сектор | Конечный сектор
---------------------------------------------------------------------
1 | 0:00.00 | 3:55.28 | 0 | 17652
2 | 3:55.28 | 6:36.15 | 17653 | 47367
3 | 10:31.43 | 3:40.72 | 47368 | 63939
4 | 14:12.40 | 4:24.55 | 63940 | 83794
5 | 18:37.20 | 2:57.29 | 83795 | 97098
6 | 21:34.49 | 6:16.47 | 97099 | 125345
7 | 27:51.21 | 4:15.16 | 125346 | 144486
8 | 32:06.37 | 3:04.38 | 144487 | 158324
9 | 35:11.00 | 6:25.23 | 158325 | 187222
10 | 41:36.23 | 3:07.02 | 187223 | 201249


Характеристики диапазона извлечения и сообщения об ошибках

Выбранный диапазон

Имя файла D:Blues Cousins - KGB Blues.wav

Пиковый уровень 100.0 %
Качество диапазона 100.0 %
&nbs
5c02debee58bbef4df27ea3bbac62a4bc88ecb14(2011) Blues Cousins / KGB Blues (Blues Rock) [FLAC (image+.cue), lossless] (2011) Blues Cousins / KGB Blues (Blues Rock) [FLAC (image+.cue), lossless] " />

Аплоадер: Админ, дата: 13-10-2011, 20:03, торрент скачан: 359 раз

Понравилась раздача? Посмотрите эти:
  • (1993) Coverdale & Page / Coverdale & Page (EMI Holland)(Hard Rock) [FLAC ( ...
  • (2011) Jim McCarty / Jim McCarty and Friends (Live Callahans) (Rockin Blues ...
  • (2013) Hadden Sayers / Rolling Soul (Blues-Rock) [FLAC (image+.cue), lossle ...
  • (2013) Devon Allman / Turquoise (Blues-Rock) [FLAC (image+.cue), lossless]
  • (2012) Mike Snowden / Cigar Box Guitar Evil (Blues-Rock) [FLAC (image+.cue) ...
  • (2013) Pinnick Gales Pridgen / Pinnick Gales Pridgen (Hard Rock, Heavy Blue ...
  • (2013) Krokus / Dirty Dynamite (Hard Rock) [FLAC (image+.cue), lossless]
  • (Дискография, 1997 - 2008) Tito & Tarantula (Rock, Blues Rock) [FLAC (image ...
  • (2012) Richie Rich & The Chi / Town Blues Band / From The Streets (Blues, E ...
  • (1993) ЖАННА АГУЗАРОВА И «БРАВО» — Жанна Агузарова и «Браво» 1983—1988 (Roc ...
  • (Дискография) Chris Isaak (Blues Rock/Southern Rock/Pop Rock) [APE/FLAC (im ...
  • (2011) АукцЫон / Юла (Rock) [APE (image+.cue), lossless]
  • (2011) Chris Rea / Santo Spirito Blues - BoxSet (3CD+2DVD) (Blues Rock) [FL ...
  • (Дискография, 1983-1997) Stevie Ray Vaughan (Blues) [APE (image+.cue), loss ...
  • (2012) The Blues Overdrive / The Blues Overdrive (Blues-Rock) [FLAC (image+ ...
  • (2012) Garou / Rhythm And Blues (Pop Rock, Blues, R&B) [WAVPack (image+.cue ...
  • (2012) Gary Clark Jr. / Blak and Blu (Blues, Rock) [FLAC (image+.cue), loss ...
  • (2012) The Rockin Blues Express (feat. John Gumby Goodwin) / The Rockin Blu ...
  • (1998) Шанхай и Маргулис / 7+1 (Blues Rock) [FLAC (tracks+.cue), lossless]
  • (2008, сборник) VA / The DALI CD Vol.2 - In Admiration Of Music (Vocal Jazz ...
  • (2012) ЛихоЛесье / Blues 2012 (Rock, Blues) [MP3, 320/CBR]
  • (1988) Fausto Papetti / Grand Collection (POP, Jazz) [FLAC (image+.cue), lo ...
  • (1995) Steve Morse Band / Structural Damage (Instrumental Rock/Blues Rock/J ...
  • (2012) Walter Trout / Blues For The Modern Daze (Blues, Blues Rock) [FLAC ( ...
  • (2012) Don Ray Band / Full Throttle (Blues, Blues-Rock) [APE (image+.cue), ...
  • Информация
    Посетители, находящиеся в группе Гости, не могут оставлять комментарии к данной публикации.