вход на сайт

Имя пользователя :
Пароль :

Восстановление пароля Регистрация
(2013) The Hamburg Blues Band / Friends For A LIVEtime (Blues Rock, Rock) [FLAC (image+.cue), lossless]
Рейтинг:
(голосов: 1)



[img]{THEME}/images/logopost.png[/img]



Исполнитель: The Hamburg Blues Band
Страна: Germany
Альбом: Friends For A LIVEtime. A Compilation of 30 Years Of Peformances
Тип альбома: Compilation
Год выпуска: 2013
Жанр: Blues Rock, Rock
Страна (Издатель, Каталожный номер): Holland (New Music, Hamburg Blues Band, HH7440)
Аудиокодек: FLAC (*.flac)
Тип рипа: image+.cue
Битрейт: lossless
Продолжительность: 01:17:58
Наличие сканов в содержимом раздачи: да(JPG, 600dpi, 91Mb)

Дополнительная информация:▼О релизе:
Альбом - компиляция подводящий итог 30-ти летней творческой деятельности.

Official page

Tреклист:
01. Hypnotized - 4:44
02. Waiting For The Wind - 5:26
03. On Your Way Down - 5:12
04. Wishing Well - 3:27
05. Inner City Blues - 5:27
06. Superstition - 5:13
07. When A Blind Man Cries - 5:19
08. The Old Soulsinger - 6:58
09. Get Off My Back - 4:00
10. Help The Poor - 6:01
11. Done Somebody Wrong - 3:49
12. Rockin Chair - 4:56
13. Stormy Monday Blues - 8:01
14. It Shouldve Been Me - 3:46
15. Fire - 5:39

Лог создания рипа (EAC log) ▼Text Exact Audio Copy V1.0 beta 3 from 29. August 2011

EAC extraction logfile from 9. December 2013, 20:32

The HAMBURG BLUES BAND / Friends For A LIVEtime

Used drive : ATAPI iHAS124 B Adapter: 2 ID: 0

Read mode : Secure
Utilize accurate stream : Yes
Defeat audio cache : Yes
Make use of C2 pointers : No

Read offset correction : 6
Overread into Lead-In and Lead-Out : No
Fill up missing offset samples with silence : Yes
Delete leading and trailing silent blocks : No
Null samples used in CRC calculations : Yes
Used interface : Native Win32 interface for Win NT & 2000

Used output format : User Defined Encoder
Selected bitrate : 1024 kBit/s
Quality : High
Add ID3 tag : No
Command line compressor : C:Program Files (x86)Exact Audio CopyFLACFLAC.EXE
Additional command line options : -8 -V -T "ARTIST=%artist%" -T "TITLE=%title%" -T "ALBUM=%albumtitle%" -T "DATE=%year%" -T "TRACKNUMBER=%tracknr%" -T "GENRE=%genre%" -T "PERFORMER=%albuminterpret%" -T "COMPOSER=%composer%" %haslyrics%--tag-from-file=LYRICS="%lyricsfile%"%haslyrics% -T "ALBUMARTIST=%albumartist%" -T "DISCNUMBER=%cdnumber%" -T "TOTALDISCS=%totalcds%" -T "TOTALTRACKS=%numtracks%" -T "COMMENT=%comment%" %source% -o %dest%


TOC of the extracted CD

Track | Start | Length | Start sector | End sector
---------------------------------------------------------
1 | 0:00.00 | 4:43.44 | 0 | 21268
2 | 4:43.44 | 5:25.65 | 21269 | 45708
3 | 10:09.34 | 5:12.15 | 45709 | 69123
4 | 15:21.49 | 3:27.16 | 69124 | 84664
5 | 18:48.65 | 5:26.45 | 84665 | 
4c5cf1d7b8d337ab2c9f053faf0ba58abae90d39(2013) The Hamburg Blues Band / Friends For A LIVEtime (Blues Rock, Rock) [FLAC (image+.cue), lossless] (2013) The Hamburg Blues Band / Friends For A LIVEtime (Blues Rock, Rock) [FLAC (image+.cue), lossless] " />

Аплоадер: Админ, дата: 9-12-2013, 21:52, торрент скачан: 359 раз

Понравилась раздача? Посмотрите эти:
  • (2013) Yes / Close To The Edge (1972, remixed, CD+Blu-ray) (Progressive Roc ...
  • (2013) The Holmes Brothers / Brotherhood (Modern Electric Blues, Soul, Gosp ...
  • (2013) Dave Meniketti (Y&T - Yesterday & Today) / On The Blue Side (1999) ( ...
  • (2013) Buddy Guy / Rhythm & Blues (2CD) (Blues) [FLAC (image+.cue), Lossles ...
  • (2013) Chris Norman (ex. Smokie) / There And Back (Pop Rock) [FLAC (image+. ...
  • (2013) Innes Sibun / Lost In The Wilderness (Blues Rock, Rock) [FLAC (image ...
  • (2013) VA / Crossroads Guitar Festival Eric Clapton (2CD) (Blues, Blues Roc ...
  • (2013) Leslie West / Still Climbing (Rock, Hard Rock, Blues Rock) [FLAC (im ...
  • (2013) Paul McCartney / New (Deluxe Edition) (Rock) [FLAC (image,+.cue), lo ...
  • (2013) Elton John / The Diving Board (Rock, Pop Rock) [FLAC (image+.cue), L ...
  • (2013) Govt Mule / Shout! (2CD) (Blues Rock) [FLAC (image+.cue), Lossless]
  • (2010, 3CD) Ten Years After / Think About the Times. The Chrysalis Years 19 ...
  • (2013) Fall Out Boy / Save Rock and Roll (Pop-Punk) [ALAC (tracks), lossles ...
  • (2013) Jimi Hendrix / People, Hell and Angels (Psychedelic Rock, Blues Rock ...
  • (2011) Linkin Park / LP Underground 11 (Alternative Rock) [FLAC (Image+cue) ...
  • (2012) Katie Melua / Secret Symphony (Jazz Pop, Vocal Jazz) [FLAC (tracks+. ...
  • (2011) B.B. King / Icon (Blues) [FLAC (tracks+.cue), lossless]
  • (2012) Mark Lanegan Band / Blues Funeral (Alternative Rock/Blues Rock) [FLA ...
  • (2012) Marconi Union / Different Colours (Post Rock, Downtempo, Ambient) [F ...
  • (1996) The Rasmus / Peep (Finnish Version) (Alternative Rock) [FLAC (tracks ...
  • (2012) Les Friction / Les Friction (Alt. Rock/Neo-Classical/Orchestral) [FL ...
  • (2011) SeeS / The enD (Progressive/Math Metal) [FLAC (tracks+.cue), lossles ...
  • (2012) Our Lady Peace / Curve (Alternative/Rock) [FLAC (tracks+.cue), lossl ...
  • (2012) Nine Lashes / World We View (Alt.Rock/Alt.Metal/Christian) [FLAC (tr ...
  • (2012) Laid Back / Cosmic Vibes (Electronic, Pop, Electro, Downtempo) [FLAC ...
  • Информация
    Посетители, находящиеся в группе Гости, не могут оставлять комментарии к данной публикации.