вход на сайт

Имя пользователя :
Пароль :

Восстановление пароля Регистрация
(2013) Innes Sibun / Lost In The Wilderness (Blues Rock, Rock) [FLAC (image+.cue), lossless]
Рейтинг:
(голосов: 1)



[img]{THEME}/images/logopost.png[/img]



Исполнитель: Innes Sibun
Страна: UK, Wales
Альбом: Lost In The Wilderness
Тип альбома: Студийный
Год выпуска: 2013
Жанр: Blues Rock, Rock
Страна (Издатель, Каталожный номер): UK (Music Avenue, Blues Boulevard Records, 250356)
Аудиокодек: FLAC (*.flac)
Тип рипа: image+.cue
Битрейт: lossless
Продолжительность: 00:51:04
Наличие сканов в содержимом раздачи: да(JPG, 600dpi, 30Mb)

Дополнительная информация:▼О релизе:
Lost In The Wilderness – новый студийный альбом гитариста, певца и автора песен Innes Sibun. Бывший гитарист Innes Sibun группы Robert Plant, в возрасте 12 лет, начинал играть с BB King на Live At Reggal.


Official page

Tреклист:
01. You Cant Miss What You Never Had - 3:14
02. Lost In The Wilderness - 6:31
03. Where Are You - 2:51
04. There Will Always Be - 4:53
05. Double Trouble - 6:51
06. She Dont Care - 3:25
07. Gzan Hoedown - 3:53
08. Lets Call It A Night - 3:30
09. When The Love Breaks Down - 4:26
10. Fly Too Near To The Sun - 4:04
11. Twice As Strong - 3:39
12. Goin Home - 3:47

Лог создания рипа (EAC log) ▼Text Exact Audio Copy V1.0 beta 3 from 29. August 2011

EAC extraction logfile from 7. December 2013, 14:36

Innes Sibun / Lost In The Wilderness

Used drive : ATAPI iHAS124 B Adapter: 2 ID: 0

Read mode : Secure
Utilize accurate stream : Yes
Defeat audio cache : Yes
Make use of C2 pointers : No

Read offset correction : 6
Overread into Lead-In and Lead-Out : No
Fill up missing offset samples with silence : Yes
Delete leading and trailing silent blocks : No
Null samples used in CRC calculations : Yes
Used interface : Native Win32 interface for Win NT & 2000

Used output format : User Defined Encoder
Selected bitrate : 1024 kBit/s
Quality : High
Add ID3 tag : No
Command line compressor : C:Program Files (x86)Exact Audio CopyFLACFLAC.EXE
Additional command line options : -8 -V -T "ARTIST=%artist%" -T "TITLE=%title%" -T "ALBUM=%albumtitle%" -T "DATE=%year%" -T "TRACKNUMBER=%tracknr%" -T "GENRE=%genre%" -T "PERFORMER=%albuminterpret%" -T "COMPOSER=%composer%" %haslyrics%--tag-from-file=LYRICS="%lyricsfile%"%haslyrics% -T "ALBUMARTIST=%albumartist%" -T "DISCNUMBER=%cdnumber%" -T "TOTALDISCS=%totalcds%" -T "TOTALTRACKS=%numtracks%" -T "COMMENT=%comment%" %source% -o %dest%


TOC of the extracted CD

Track | Start | Length | Start sector | End sector
---------------------------------------------------------
1 | 0:00.00 | 3:13.40 | 0 | 14514
2 | 3:13.40 | 6:31.17 | 14515 | 43856
3 | 9:44.57 | 2:50.47 | 43857 | 56653
4 | 12:35.29 | 4:53.00 | 56654 | 78628
5 | 17:28.29 | 6:51.10 | &n
1d7dd72e0710803282786375ca332af8c28584d3(2013) Innes Sibun / Lost In The Wilderness (Blues Rock, Rock) [FLAC (image+.cue), lossless] (2013) Innes Sibun / Lost In The Wilderness (Blues Rock, Rock) [FLAC (image+.cue), lossless] " />

Аплоадер: Админ, дата: 7-12-2013, 23:22, торрент скачан: 359 раз

Понравилась раздача? Посмотрите эти:
  • (2013) Yes / Close To The Edge (1972, remixed, CD+Blu-ray) (Progressive Roc ...
  • (2013) The Holmes Brothers / Brotherhood (Modern Electric Blues, Soul, Gosp ...
  • (2013) Dave Meniketti (Y&T - Yesterday & Today) / On The Blue Side (1999) ( ...
  • (2013) Buddy Guy / Rhythm & Blues (2CD) (Blues) [FLAC (image+.cue), Lossles ...
  • (2013) The Hamburg Blues Band / Friends For A LIVEtime (Blues Rock, Rock) [ ...
  • (2013) Leslie West / Still Climbing (Rock, Hard Rock, Blues Rock) [FLAC (im ...
  • (2013) Paul McCartney / New (Deluxe Edition) (Rock) [FLAC (image,+.cue), lo ...
  • (2013) Elton John / The Diving Board (Rock, Pop Rock) [FLAC (image+.cue), L ...
  • (2013) Govt Mule / Shout! (2CD) (Blues Rock) [FLAC (image+.cue), Lossless]
  • (2013) Fall Out Boy / Save Rock and Roll (Pop-Punk) [ALAC (tracks), lossles ...
  • (2011) Disturbed / The Lost Children (Alternative Metal) [FLAC (tracks+.cue ...
  • (2011) Linkin Park / LP Underground 11 (Alternative Rock) [FLAC (Image+cue) ...
  • (2012) Mark Lanegan Band / Blues Funeral (Alternative Rock/Blues Rock) [FLA ...
  • (2012) Marconi Union / Different Colours (Post Rock, Downtempo, Ambient) [F ...
  • (1996) The Rasmus / Peep (Finnish Version) (Alternative Rock) [FLAC (tracks ...
  • (2012) Buckethead / Electric Sea (Experimental/Acoustic/Ambient/Rock) [FLAC ...
  • (2012) Les Friction / Les Friction (Alt. Rock/Neo-Classical/Orchestral) [FL ...
  • (2011) SeeS / The enD (Progressive/Math Metal) [FLAC (tracks+.cue), lossles ...
  • (2012) Our Lady Peace / Curve (Alternative/Rock) [FLAC (tracks+.cue), lossl ...
  • (2012) Nine Lashes / World We View (Alt.Rock/Alt.Metal/Christian) [FLAC (tr ...
  • Информация
    Посетители, находящиеся в группе Гости, не могут оставлять комментарии к данной публикации.