вход на сайт

Имя пользователя :
Пароль :

Восстановление пароля Регистрация
(2013) Dave Meniketti (Y&T - Yesterday & Today) / On The Blue Side (1999) (Blues Rock) [FLAC (image+.cue), Lossless]
Рейтинг:
(голосов: 1)



[img]{THEME}/images/logopost.png[/img]



Исполнитель: Dave Meniketti
Страна: USA
Альбом: On The Blue Side
Тип альбома: Студийный
Год выпуска: 2013
Жанр: Blues Rock
Год первоначального издания альбома: 1999
Страна (Издатель, Каталожный номер): USA (Blue Moon Music, BMM99101)
Аудиокодек: FLAC (*.flac)
Тип рипа: image+.cue
Битрейт: lossless
Продолжительность: 01:03:26
Наличие сканов в содержимом раздачи: Да (JPG, 600dpi, 14Mb)

Дополнительная информация:▼Об альбоме:
On The Blue Side - 1-ой сольный альбом фронт мена, лидер-гитариста хард-рок и хэви-метал группы Y&T (Yesterday & Today), автора песен и певца Dave Meniketti. Пожалуй, сольные блюзовые альбомы, с музыкальной точки зрения, выглядят более привлекательно. Любители хэви метала могут со мной не согласиться.
В данной раздаче рип с CD – дополнительного тиража 2013 года.

Wikipedia|Official page

Tреклист:
01. Mans World - 4:46
02. Angel on My Shoulder - 4:37
03. Cant Do Nothin Right - 5:22
04. Loan Me a Dime - 6:20
05. Until the Next Time - 5:34
06. Just coastin - 4:26
07. Bad Feeling - 4:37
08. Say Goodbye - 5:46
09. Parchman Farm - 4:52
10. Take It Like a Man - 9:33
11. Baby Blues - 5:00
12. Mister Blister - 2:32

Лог создания рипа (EAC log) ▼Text Exact Audio Copy V1.0 beta 3 from 29. August 2011

EAC extraction logfile from 5. November 2013, 20:49

Dave Meniketti / On the Blue Side

Used drive : ATAPI iHAS124 B Adapter: 2 ID: 0

Read mode : Secure
Utilize accurate stream : Yes
Defeat audio cache : Yes
Make use of C2 pointers : No

Read offset correction : 6
Overread into Lead-In and Lead-Out : No
Fill up missing offset samples with silence : Yes
Delete leading and trailing silent blocks : No
Null samples used in CRC calculations : Yes
Used interface : Native Win32 interface for Win NT & 2000

Used output format : User Defined Encoder
Selected bitrate : 1024 kBit/s
Quality : High
Add ID3 tag : No
Command line compressor : C:Program Files (x86)Exact Audio CopyFLACFLAC.EXE
Additional command line options : -8 -V -T "ARTIST=%artist%" -T "TITLE=%title%" -T "ALBUM=%albumtitle%" -T "DATE=%year%" -T "TRACKNUMBER=%tracknr%" -T "GENRE=%genre%" -T "PERFORMER=%albuminterpret%" -T "COMPOSER=%composer%" %haslyrics%--tag-from-file=LYRICS="%lyricsfile%"%haslyrics% -T "ALBUMARTIST=%albumartist%" -T "DISCNUMBER=%cdnumber%" -T "TOTALDISCS=%totalcds%" -T "TOTALTRACKS=%numtracks%" -T "COMMENT=%comment%" %source% -o %dest%

TOC of the extracted CD

Track | Start | Length | Start sector | End sector
---------------------------------------------------------
1 | 0:00.00 | 4:45.60 | 0 | 21434
2 | 4:45.60 | 4:36.65 | 21435 | 42199
3 | 9:22.50 | 5:22.07 | 42200 | 66356
4 | 14:44.57 | 6:19.45 | 66357 | &nb
341e4b7e651efd15266269774a9ec7533876f398(2013) Dave Meniketti (Y&T - Yesterday & Today) / On The Blue Side (1999) (Blues Rock) [FLAC (image+.cue), Lossless] (2013) Dave Meniketti (Y&T - Yesterday & Today) / On The Blue Side (1999) (Blues Rock) [FLAC (image+.cue), Lossless] " />

Аплоадер: Админ, дата: 1-12-2013, 09:47, торрент скачан: 359 раз

Понравилась раздача? Посмотрите эти:
  • (2013) Yes / Close To The Edge (1972, remixed, CD+Blu-ray) (Progressive Roc ...
  • (2013) The Holmes Brothers / Brotherhood (Modern Electric Blues, Soul, Gosp ...
  • (2013) Buddy Guy / Rhythm & Blues (2CD) (Blues) [FLAC (image+.cue), Lossles ...
  • (2013) Dave Edmunds / ...Again (Rock, RocknRoll) [FLAC (image+.cue), lossle ...
  • (2013) Innes Sibun / Lost In The Wilderness (Blues Rock, Rock) [FLAC (image ...
  • (2013) The Hamburg Blues Band / Friends For A LIVEtime (Blues Rock, Rock) [ ...
  • (2013) Leslie West / Still Climbing (Rock, Hard Rock, Blues Rock) [FLAC (im ...
  • (2013) Paul McCartney / New (Deluxe Edition) (Rock) [FLAC (image,+.cue), lo ...
  • (2013) Elton John / The Diving Board (Rock, Pop Rock) [FLAC (image+.cue), L ...
  • (2013) Govt Mule / Shout! (2CD) (Blues Rock) [FLAC (image+.cue), Lossless]
  • (2013) Prodigy & The Alchemist / Albert Einstein (Underground Hip-Hop) [FLA ...
  • (2013) Fall Out Boy / Save Rock and Roll (Pop-Punk) [ALAC (tracks), lossles ...
  • (2011) Linkin Park / LP Underground 11 (Alternative Rock) [FLAC (Image+cue) ...
  • (2007, 5 CDs Box set) VA / 100 Hits - Rock (Hard Rock, Classic Rock) [FLAC ...
  • (2012) Mark Lanegan Band / Blues Funeral (Alternative Rock/Blues Rock) [FLA ...
  • (2012) Marconi Union / Different Colours (Post Rock, Downtempo, Ambient) [F ...
  • (2008, Сборник) VA / Relax Piano - Yesterday - Trai Tim Mua Thu - Vol.7 (Ne ...
  • (2012) Tomandandy / Resident Evil: Retribution (Score, Soundtrack)[FLAC (tr ...
  • (1996) The Rasmus / Peep (Finnish Version) (Alternative Rock) [FLAC (tracks ...
  • (2012) Buckethead / Electric Sea (Experimental/Acoustic/Ambient/Rock) [FLAC ...
  • (2012) Les Friction / Les Friction (Alt. Rock/Neo-Classical/Orchestral) [FL ...
  • (2011) SeeS / The enD (Progressive/Math Metal) [FLAC (tracks+.cue), lossles ...
  • (2012) Our Lady Peace / Curve (Alternative/Rock) [FLAC (tracks+.cue), lossl ...
  • (2012) Nine Lashes / World We View (Alt.Rock/Alt.Metal/Christian) [FLAC (tr ...
  • (2012) For Today / Immortal (Metalcore, Hardcore, Christian) [FLAC (tracks+ ...
  • Информация
    Посетители, находящиеся в группе Гости, не могут оставлять комментарии к данной публикации.