вход на сайт

Имя пользователя :
Пароль :

Восстановление пароля Регистрация
(2012) Don Ray Band / Full Throttle (Blues, Blues-Rock) [APE (image+.cue), lossless]
Рейтинг:
(голосов: 1)



[img]{THEME}/images/logopost.png[/img]



Исполнитель: Don Ray Band
Страна: США
Альбом: Full Throttle
Тип альбома: Студийный
Год выпуска: 2012
Жанр: Blues, Blues-Rock
Страна (Издатель, Каталожный номер): США (Margdon Rec., MDR3030)
Аудиокодек: APE (*.ape)
Тип рипа: image+.cue
Битрейт: lossless
Log-файл: Присутствует.
Наличие сканов в содержимом раздачи: Да. (JPG, 72DPI, 46,2MB)
Продолжительность: 00:37:54

Об исполнителе: The Don Ray Band, formed in 2009, is a AAA Rock - N - Southern Country Soul band created by world class songwriters and studio / touring musicians based in Nashville, TN. Produced by Hall Of Fame Guitarist, Will McFarlane, the band members are Don Ray – Singer / Songwriter, Billy Smart - Guitarist & Songwriter / Vocalist, Jonathan Armstrong – Keyboards & Songwriter / Vocalist, Jeff Offutt - Bass & Vocalist, Josh Birkhimer - Drums.

Tреклист:
01. Don Ray Band - This Is Our House (03:39)
02. Don Ray Band - Full Throttle (03:31)
03. Don Ray Band - Daniels And Caine (03:40)
04. Don Ray Band - Bad Decisions (03:41)
05. Don Ray Band - Morningside Avenue (05:22)
06. Don Ray Band - Suicide Girl (02:42)
07. Don Ray Band - My Rush (03:37)
08. Don Ray Band - Road To Nashville (03:48)
09. Don Ray Band - All Get Together (04:03)
10. Don Ray Band - The Clown (03:46)

Лог создания рипа (EAC log) ▼TextExact Audio Copy V0.99 prebeta 4 from 23. January 2008

Отчёт EAC об извлечении, выполненном 1. сентября 2012, 3:02

Don Ray Band / Full Throttle

Дисковод: Optiarc DVD RW AD-7173A Adapter: 0 ID: 1

Режим чтения : Достоверность
Использование точного потока : Да
Отключение кэша аудио : Да
Использование указателей C2 : Нет

Коррекция смещения при чтении : 48
Способность читать области Lead-in и Lead-out : Нет
Заполнение пропущенных сэмплов тишиной : Да
Удаление блоков с тишиной в начале и конце : Нет
При вычислениях CRC использовались нулевые сэмплы : Да
Интерфейс : Встроенный Win32-интерфейс для Win NT/2000

Выходной формат : Внутренние WAV-операции
Формат сэмплов : 44.100 Гц; 16 бит; стерео

TOC извлечённого CD

Трек | Старт | Длительность | Начальный сектор | Конечный сектор
---------------------------------------------------------------------
1 | 0:00.00 | 3:39.02 | 0 | 16426
2 | 3:39.02 | 3:31.68 | 16427 | 32319
3 | 7:10.70 | 3:40.16 | 32320 | 48835
4 | 10:51.11 | 3:41.52 | 48836 | 65462
5 | 14:32.63 | 5:22.51 | 65463 | 89663
6 | 19:55.39 | 2:42.47 | 89664 | 101860
7 | 22:38.11 | 3:37.14 | 101861 | 118149
8 | 26:15.25 | 3:48.63 | 118150
93da6a2af27d469e9ca1bdbb2b6f0f173dc174d1(2012) Don Ray Band / Full Throttle (Blues, Blues-Rock) [APE (image+.cue), lossless] (2012) Don Ray Band / Full Throttle (Blues, Blues-Rock) [APE (image+.cue), lossless] " />

Аплоадер: Админ, дата: 31-10-2012, 19:55, торрент скачан: 359 раз

Понравилась раздача? Посмотрите эти:
  • (2013) The Hamburg Blues Band / Friends For A LIVEtime (Blues Rock, Rock) [ ...
  • (2013) Walter Trout & His Band/Luthers Blues (Blues-Rock) [MP3, 320 kbps/CB ...
  • (2011) Jim McCarty / Jim McCarty and Friends (Live Callahans) (Rockin Blues ...
  • (2013) Hadden Sayers / Rolling Soul (Blues-Rock) [FLAC (image+.cue), lossle ...
  • (2013) Devon Allman / Turquoise (Blues-Rock) [FLAC (image+.cue), lossless]
  • (2012) Mike Westcott / Justice Road (Hard Blues, Rock) [FLAC (image+.cue), ...
  • (2008) Band From TV / Hoggin All The Covers (Blues Rock) [MP3, 199/VBR]
  • (2010) Super 300 Blues Band / Id Rather Drink Muddy Water (Blues) [MP3, 256 ...
  • (2012) Rick Lollar Band / Soulful Hang (Blues) [MP3, 320 kbps/CBR]
  • (2012) Richie Rich & The Chi / Town Blues Band / From The Streets (Blues, E ...
  • (2012) The Jonestown Band / The Last Days Of Jonestown (Blues, Blues-Rock, ...
  • (2012) Justin Saladino Band / Sometimes Called The Blues (Blues Rock) [Mp3 ...
  • (Дискография, 2006 - 2012) Phantom Blues Band (Soul-Blues, Rhythm & Blues) ...
  • (2012) Brant Parker Band / River Of Broken Dreams (Blues-Rock) [Mp3 (tracks ...
  • (2012) Bobby Lindstrom Band / Between a Rock and a Blue Spot (Blues-Rock) [ ...
  • (2007) VA / Coffee Time Jazz (Smooth Jazz, Big Band, Latin Jazz) [FLAC (ima ...
  • (2011) Blues Cousins / KGB Blues (Blues Rock) [FLAC (image+.cue), lossless] ...
  • (Дискография, 1980-2009) The Robert Cray Band (Blues) [APE (image+.cue), lo ...
  • (2012) The Blues Overdrive / The Blues Overdrive (Blues-Rock) [FLAC (image+ ...
  • (2012) Gary Clark Jr. / Blak and Blu (Blues, Rock) [FLAC (image+.cue), loss ...
  • (2012) Joe Bonamassa / Greatest Hits (2CD) (Blues-Rock) [APE (image+.cue), ...
  • (2012) The Rockin Blues Express (feat. John Gumby Goodwin) / The Rockin Blu ...
  • [PS3] Rock Band: Green Day (2010/ENG/Full)
  • (1995) Steve Morse Band / Structural Damage (Instrumental Rock/Blues Rock/J ...
  • (2012) Walter Trout / Blues For The Modern Daze (Blues, Blues Rock) [FLAC ( ...
  • Информация
    Посетители, находящиеся в группе Гости, не могут оставлять комментарии к данной публикации.