вход на сайт

Имя пользователя :
Пароль :

Восстановление пароля Регистрация
(2012) Walter Trout / Blues For The Modern Daze (Blues, Blues Rock) [FLAC (image+.cue), Lossless]
Рейтинг:
(голосов: 1)



[img]{THEME}/images/logopost.png[/img]



Исполнитель: Walter Trout
Страна: USA, New Jersey
Альбом: Blues For The Modern Daze
Тип альбома: Студийный
Год выпуска: 2012
Жанр: Blues, Blues Rock
Страна (Издатель, Каталожный номер): USA (Mascot Records, Provogue, (PRD73682, 020286198772))
Аудиокодек: FLAC
Тип рипа: image+.cue
Битрейт: lossless
Наличие сканов в содержимом раздачи: да (JPG, 300Dpi, 27.9 MB)
Продолжительность: 01:17:58


Об исполнителе (об издании): Blues For The Modern Daze – двадцать первый студийный альбом американского блюзового гитариста, певца и автора исполнителя Walter Trout, выпущенный 24 апреля 2012 года. Альбом достиг четвёртого места в Billboard Top Blues Albums.




Wikipedia | YouTube | Facebook | Official website



Tреклист:

01. Saw my mama cryinґ - 5:52
02. Lonely - 4:52
03. The sky is fallinґ down - 3:43
04. Blues for my baby - 7:57
05. You canґt go home again - 5:50
06. Recovery - 6:24
07. Turn off your tv - 3:30
08. Lifestyle of the rich and famous - 6:16
09. Never knew you well - 6:15
10. Puppet master - 0:46
11. Money rules the world - 4:38
12. All I want is you - 5:21
13. Brotherґs keeper - 7:01
14. Blues for the modern daze - 6:18
15. Pray for rain - 3:14


Лог создания рипа (EAC) ▼Text
Exact Audio Copy V0.99 prebeta 4 from 23. January 2008

Отчёт EAC об извлечении, выполненном 26. апреля 2012, 19:40

Walter Trout / Walter Trout - Blues for the Modern Daze

Дисковод: PLEXTOR DVDR PX-880SA Adapter: 1 ID: 1

Режим чтения : Достоверность
Использование точного потока : Да
Отключение кэша аудио : Да
Использование указателей C2 : Нет

Коррекция смещения при чтении : 6
Способность читать области Lead-in и Lead-out : Нет
Заполнение пропущенных сэмплов тишиной : Да
Удаление блоков с тишиной в начале и конце : Нет
При вычислениях CRC использовались нулевые сэмплы : Да
Интерфейс : Встроенный Win32-интерфейс для Win NT/2000

Выходной формат : Пользовательский кодировщик
Выбранный битрейт : 1024 kBit/s
Качество : Высокий
Добавление ID3-тэга : Нет
Утилита сжатия : C:Program FilesExact Audio CopyFLACFLAC.EXE
Дополнительные параметры : -6 -V -T "ARTIST=%a" -T "TITLE=%t" -T "ALBUM=%g" -T "DATE=%y" -T "TRACKNUMBER=%n" -T "GENRE=%m" -T "COMMENT=%e" %s -o %d


TOC извлечённого CD

Трек | Старт | Длительность | Начальный сектор | Конечный сектор
---------------------------------------------------------------------
1 | 0:00.00 | 5:52.25 | 0 | 26424
2 | 5:52.25 | 4:52.05 | 26425 | 48329
3 | 10:44.30 | 3:42.60 | 48330 | 65039
4 | 14:27.15 | 7:57.11 | 65040 | 100825
5 | 22:24.26 | 5:49.66 | 
bd20eaa78b1ececb37d78aa5eab46fe93947c957(2012) Walter Trout / Blues For The Modern Daze (Blues, Blues Rock) [FLAC (image+.cue), Lossless] (2012) Walter Trout / Blues For The Modern Daze (Blues, Blues Rock) [FLAC (image+.cue), Lossless] " />

Аплоадер: Админ, дата: 18-06-2012, 12:57, торрент скачан: 359 раз

Понравилась раздача? Посмотрите эти:
  • (1993) Coverdale & Page / Coverdale & Page (EMI Holland)(Hard Rock) [FLAC ( ...
  • (2000) a-ha / Minor Earth | Major Sky (Alternative Rock, Synth-pop ) [FLAC ...
  • (2013) The Holmes Brothers / Brotherhood (Modern Electric Blues, Soul, Gosp ...
  • (2013) Buddy Guy / Rhythm & Blues (2CD) (Blues) [FLAC (image+.cue), Lossles ...
  • (2013) Innes Sibun / Lost In The Wilderness (Blues Rock, Rock) [FLAC (image ...
  • (2013) The Hamburg Blues Band / Friends For A LIVEtime (Blues Rock, Rock) [ ...
  • (2013) Leslie West / Still Climbing (Rock, Hard Rock, Blues Rock) [FLAC (im ...
  • (2013) Walter Trout & His Band/Luthers Blues (Blues-Rock) [MP3, 320 kbps/CB ...
  • (2011) Jim McCarty / Jim McCarty and Friends (Live Callahans) (Rockin Blues ...
  • (2013) Hadden Sayers / Rolling Soul (Blues-Rock) [FLAC (image+.cue), lossle ...
  • (2013) Tinsley Ellis / Get It! (Blues, Instrumental) [FLAC (image+.cue), lo ...
  • (2013) Robin Trower / Roots And Branches (Blues-Rock) [FLAC (image+.cue), l ...
  • (2013) Devon Allman / Turquoise (Blues-Rock) [FLAC (image+.cue), lossless]
  • (2012) Mike Snowden / Cigar Box Guitar Evil (Blues-Rock) [FLAC (image+.cue) ...
  • (2013) Pinnick Gales Pridgen / Pinnick Gales Pridgen (Hard Rock, Heavy Blue ...
  • (2012) Walter Trout / Blues for the Modern Daze (Blues-Rock) [MP3, 320 kbps ...
  • (2011) VA / Bar Jazz (Swing, Vocal Jazz, Trad Jazz) [FLAC (image+.cue), los ...
  • (2011) Blues Cousins / KGB Blues (Blues Rock) [FLAC (image+.cue), lossless] ...
  • (2011) Chris Rea / Santo Spirito Blues - BoxSet (3CD+2DVD) (Blues Rock) [FL ...
  • (1998) Roomful of Blues / There Goes The Neighborhood (Jump / Modern Electr ...
  • (2012) The Blues Overdrive / The Blues Overdrive (Blues-Rock) [FLAC (image+ ...
  • (2012) Garou / Rhythm And Blues (Pop Rock, Blues, R&B) [WAVPack (image+.cue ...
  • (2012) Gary Clark Jr. / Blak and Blu (Blues, Rock) [FLAC (image+.cue), loss ...
  • (2012) The Rockin Blues Express (feat. John Gumby Goodwin) / The Rockin Blu ...
  • (1998) Шанхай и Маргулис / 7+1 (Blues Rock) [FLAC (tracks+.cue), lossless]
  • Информация
    Посетители, находящиеся в группе Гости, не могут оставлять комментарии к данной публикации.