вход на сайт

Имя пользователя :
Пароль :

Восстановление пароля Регистрация
(Дискография, 1995-2006) Adiemus (Instrumental, Folk, Vocal, New Age) [FLAC, (tracks+.cue, image+.cue), lossless]
Рейтинг:
(голосов: 1)



[img]{THEME}/images/logopost.png[/img]



Adiemus - Discography

Исполнитель: Adiemus
Страна: UK
Жанр: Instrumental, Folk, Vocal, New Age
Аудиокодек: FLAC
Тип рипа: tracks+.cue, image+.cue
Битрейт: lossless
Продолжительность: 08:44:29

Описание:
Основатель ADIEMUS - талантливый и чрезвычайно трудоспособный человек Карл Дженкис. C конца 80х Дженкинс стал подумывать о создании проекта, в котором бы реализовалась его мечта - соединить струнный оркестр с этническим вокалом. Так возник ADIEMUS.
Первые три альбома «Songs of Sanctuary», «Cantata Mundi» и «Dances of Time» вызвали небывалые восторги публики, став в разных странах серебряными, золотыми и платиновыми. Вслед за концертной премьерой в Королевском Альберт Холле в 1996 году, ADIEMUS отправился в Токио, Франкфурт , Хельсинки и Пальма-де-Майорку и всюду его ждал успех.

Wiki | LastFm | Discogs | YouTube

Studio Albums
▼1995 - Songs of Sanctuary (FLAC(tracks+.cue), lossless) ▼


Продолжительность: 00:54:18

Tреклист:
[04:00] 01. Karl Jenkins - Adiemus
[11:01] 02. Karl Jenkins - Tintinnabulum
[03:15] 03. Karl Jenkins - Cantus Inaequalis
[05:37] 04. Karl Jenkins - Cantus Insolitus
[07:46] 05. Karl Jenkins - In Caelum Fero
[06:40] 06. Karl Jenkins - Cantus Iteratus
[05:20] 07. Karl Jenkins - Amate Adea
[07:56] 08. Karl Jenkins - Kayama
[02:39] 09. Karl Jenkins - Hymn
"Лог создания рипа" ▼TextEAC extraction logfile from 18. December 2006, 9:18 for CD
Adiemus / Songs of Sanctuary

Used drive : ASUS DRW-1608P3S Adapter: 0 ID: 2
Read mode : Secure with NO C2, accurate stream, disable cache
Read offset correction : 48
Overread into Lead-In and Lead-Out : No

Used output format : Internal WAV Routines
44.100 Hz; 16 Bit; Stereo

Other options :
Fill up missing offset samples with silence : Yes
Delete leading and trailing silent blocks : No
Native Win32 interface for Win NT & 2000


Track 1
Filename C:My Music1 - Adiemus.wav

Pre-gap length 0:00:02.00

Peak level 91.5 %
Track quality 100.0 %
Test CRC 24BABF70
Copy CRC 24BABF70
Copy OK

Track 2
Filename C:My Music2 - Tintinnabulum.wav

Pre-gap length 0:00:02.62

Peak level 91.0 %
Track quality 100.0 %
Test CRC 6076CFA8
Copy CRC 6076CFA8
Copy OK

Track 3
Filename C:My Music3 - Cantus Inaequalis.wav

Pre-gap length 0:00:03.53

Peak level 54.9 %
Track quality 99.9 %
Test CRC 8ACF06EC
Copy CRC 8ACF06EC
Copy OK

Track 4
Filename C:My Music4 - Cantus Insolitus.wav

Pre-gap length 0:00:02.20

Peak level 84.1 %
Track quality 100.0 %
Test CRC BFCFF246
Copy CRC BFCFF246
Copy OK

Track 5
Filename C:My Music5 - In Caelum Fero.wav

Pre-gap length 0:00:03.02

Peak level 93.4 %
Track quality 100.0 %
Test CRC D2955411
Copy CRC D2955411
Copy OK

Track 6
Filename C:My Music6 - Cantus Iteratus.wav

Pre-gap length 0:00:02.50

Peak level 89.4 %
Track quality 100.0 %
Test CRC BE
303a61118101930cec0a3b76f6547063fe639a51(Дискография, 1995-2006) Adiemus (Instrumental, Folk, Vocal, New Age) [FLAC, (tracks+.cue, image+.cue), lossless] (Дискография, 1995-2006) Adiemus (Instrumental, Folk, Vocal, New Age) [FLAC, (tracks+.cue, image+.cue), lossless] " />

Аплоадер: Админ, дата: 13-12-2012, 05:48, торрент скачан: 359 раз

Понравилась раздача? Посмотрите эти:
  • (2012, Сборник) VA / Вечерняя Коллекция (Звуки природы) (Relax) [FLAC (trac ...
  • (Jazz) Ray Charles — The Very Best Of Ray Charles - 2000, FLAC (tracks), lo ...
  • (Soundtrack,1999) Fight Club / Бойцовский клуб - The Dust Brothers [FLAC (t ...
  • (1999) Red Hot Chili Peppers - Californication (Alternative rock, Funk) [FL ...
  • (Дискография, 2000-2007) SUM 41 (Punk-Rock/Pop-Punk) [FLAC (tracks + .cue), ...
  • (Дискография) 1981-2009 Depeche Mode (Electronic, Synthpop) [FLAC (tracks+ ...
  • (2009) The Black Eyed Peas / The E.N.D. (The Energy Never Dies) (Target Del ...
  • (2001) GORILLAZ / Gorillaz (US Edition) (Hip-Hop) [FLAC (image+cue), lossle ...
  • (2010 , OST) Пипец / Kick Ass (OST) [FLAC (tracks+.cue) lossless]
  • (2008) Karunesh /Enlightenment (New Age) [FLAC (image+.cue), lossless]
  • (1988) David Grisman Quintet feat. Svend Asmussen / Svingin With Svend (Jaz ...
  • (2004-2006) Amy Winehouse (Rhythm & Blues/Neo-Soul, Ska, Jazz Pop) [FLAC(t ...
  • (2008) Miley Cyrus - Breakout (Platinum Edition) (Pop) [FLAC (tracks+.cue), ...
  • (2009) Miley Cyrus / The Time of Our Lives (Pop) [FLAC (tracks+.cue), lossl ...
  • (2010) [AMATORY] / Инстинкт обречённых (Nu Metal) [FLAC (tracks), lossless] ...
  • (2011) Linkin Park / Iridescent (Alternative Rock) [FLAC(image+.cue), lossl ...
  • (1999) Necrophagist / Onset Of Putrefaction (Technical Death Metal) [FLAC ( ...
  • (2011) This Will Destroy You / Tunnel Blanket (Post Rock) [FLAC (tracks+.cu ...
  • (2004) Дельфин / Запись концерта 19.11.04 (Alternative|Experimental) [FLAC ...
  • (Дискография, 2002 - 2012) Rodrigo y Gabriela (Acoustic, Flamenco, Classica ...
  • Информация
    Посетители, находящиеся в группе Гости, не могут оставлять комментарии к данной публикации.