вход на сайт

Имя пользователя :
Пароль :

Восстановление пароля Регистрация
(2012) Mouse On Mars / Parastrophics (Leftfield, Abstract, Rhythmic Noise, IDM, Electro) [FLAC (*.flac) (Image + .cue), lossless]
Рейтинг:
(голосов: 1)



[img]{THEME}/images/logopost.png[/img]



Исполнитель: Mouse On Mars
Альбом: Parastrophics
Тип альбома: Студийный
Год выпуска: 2012
Жанр: Leftfield, Abstract, Rhythmic Noise, IDM, Electro
Аудиокодек: FLAC (*.flac)
Тип рипа: Image + .cue
Битрейт: lossless
Лог-файл: Присутствует
Продолжительность: 00:46:18

Об исполнителе (об издании): Скрежет, скрип, стук. Вопль ненакормленного тамогочи. Разговор инопланетных существ с существами земными. Музыка виртуального будущего: все это - Mouse on Mars. Немецкие гении неживых звуков. Мышки Энди Тома (Andy Toma) и Яна Вернер (Jan Werner) совершенно не похожи на представителей электронной братии. Серенькие такие, грызут потихоньку электронный марсианский сыр, радуются жизни и пишут "музыку сердца".

Треклист:
01. The Beach Stop (03:23)
02. Chordblocker, Cinnamon Toasted (03:12)
03. Metrotopy (03:44)
04. Wienuss (03:42)
05. They Know Your Name (03:54)
06. Syncropticians (05:53)
07. Cricket (02:13)
08. Imatch (04:53)
09. Polaroyced (03:12)
10. Gearknot Cherry (02:59)
11. Bruised To Imwimper (00:43)
12. Baku Hipster (03:07)
13. Seaqz (05:18)

Отчёт X Lossless Decoder:: ▼TextX Lossless Decoder version 20120120 (139.0)

XLD extraction logfile from 2012-02-24 12:20:36 +0100

Mouse On Mars / Parastrophics

Used drive : MATSHITA DVD-R UJ-857 (revision HAEA)

Ripper mode : XLD Secure Ripper
Disable audio cache : OK for the drive with a cache less than 1375KiB
Make use of C2 pointers : NO
Read offset correction : 102
Max retry count : 20
Gap status : Analyzed, Appended (except HTOA)

TOC of the extracted CD
Track | Start | Length | Start sector | End sector
---------------------------------------------------------
1 | 00:00:00 | 03:23:12 | 0 | 15236
2 | 03:23:12 | 03:12:56 | 15237 | 29692
3 | 06:35:68 | 03:44:72 | 29693 | 46564
4 | 10:20:65 | 03:42:08 | 46565 | 63222
5 | 14:02:73 | 03:54:39 | 63223 | 80811
6 | 17:57:37 | 05:53:12 | 80812 | 107298
7 | 23:50:49 | 02:13:33 | 107299 | 117306
8 | 26:04:07 | 04:53:43 | 117307 | 139324
9 | 30:57:50 | 03:12:00 | 139325 | 153724
10 | 34:09:50 | 02:59:28 | 153725 | 167177
11 | 37:09:03 | 00:43:46 | 167178 | 170448
12 | 37:52:49 | 03:07:34 | 170449 | 184507
13 | 41:00:08 | 05:18:17 | 184508 | 208374

AccurateRip Summary
Disc not found in AccurateRip DB.

All Tracks
Album gain : -7.51 dB
Peak : 1.000000
Statistics
Read error : 0
Jitter error (maybe fixed) : 0
 
6beca81486d8536b88a53bef0bee509ad75146a2(2012) Mouse On Mars / Parastrophics (Leftfield, Abstract, Rhythmic Noise, IDM, Electro) [FLAC (*.flac) (Image + .cue), lossless] (2012) Mouse On Mars / Parastrophics (Leftfield, Abstract, Rhythmic Noise, IDM, Electro) [FLAC (*.flac) (Image + .cue), lossless] " />

Аплоадер: Админ, дата: 14-11-2012, 17:14, торрент скачан: 359 раз

Понравилась раздача? Посмотрите эти:
  • (2013) Kanye West | Yeezus (Rap|Experimental Hip-Hop) [FLAC (tracks+.cue), ...
  • (2012) The Lumineers / The Lumineers (Indie-folk, Folk-rock) [FLAC (tracks+ ...
  • (2013) by M83, Anthony Gonzalez & Joseph Trapanese / Обливион / Oblivion (S ...
  • (2013) Paramore / Paramore (Japan Edition) (Alternative Rock) [FLAC (tracks ...
  • (2013) Bullet For My Valentine / Temper Temper (Japanese Deluxe Edition) (M ...
  • (2012) Владимир Кузьмин / Endorfin (Русский Рок) [FLAC (image+.cue), lossle ...
  • (2003) Vivaldi / Violin Concertos Yehudi Menuhin (2CD) (Камерная музыка) [F ...
  • (2010) Faithless / Not Going Home (Trance/House) [FLAC (tracks), lossless]
  • (1968) The Kinks / The Kinks Are the Village Green Preservation Society (Cl ...
  • (2011) Moby / Destroyed (Electronic, Downtempo, Ambient) [FLAC (tracks+.cue ...
  • (2010) Sungha Jung / Perfect Blue (Acoustic, Fingerstyle Guitar) [FLAC (tra ...
  • (2011) Sungha Jung / Irony (Acoustic guitar, Fingerstyle) [FLAC (tracks+.cu ...
  • (2012) Bruce Springsteen / Wrecking Ball (Folk Rock) [FLAC (tracks+.cue),l ...
  • (2012) Norah Jones / Little Broken Hearts (Vocal Jazz, Alternative Rock) [F ...
  • (2009) Paul Cardall / Sacred Piano (New Age) [FLAC (tracks+.cue), lossless] ...
  • (2012) Hans Zimmer / The Dark Knight Rises (Film score) [FLAC (tracks+.cu ...
  • (2012) Linkin Park / LP Underground 12 (Alternative Rock) [FLAC (tracks+.cu ...
  • (2010) Enduser / 1-3 (DnB, Dubstep, Breakcore) [FLAC (tracks+.cue), lossles ...
  • (2011) Metallica / Beyond Magnetic (Thrash Metal) [FLAC (image+.cue), lossl ...
  • (2012) Lana Del Rey / Born To Die (Indie Pop) [FLAC (tracks+.cue), lossless ...
  • (2012) The Fray / Scars & Stories (Alternative/Rock/Piano Rock) [FLAC (trac ...
  • (2012) Unheilig / Lichter der Stadt (Limited Edition, 2CD) (Industrial, Got ...
  • (2012) Young Guns / Bones (Alternative Rock) [FLAC (tracks +.cue), lossless ...
  • (2012) Switchfoot / Vice Re-Verses (Remixes) (Alternative, Christian Rock, ...
  • (2011) 7eventh Time Down / Alive In You (Alternative Rock/Modern Rock/Chris ...
  • Информация
    Посетители, находящиеся в группе Гости, не могут оставлять комментарии к данной публикации.