вход на сайт

Имя пользователя :
Пароль :

Восстановление пароля Регистрация
(2010) VA / 100 Hits: Summer Reggae (Reggae) [FLAC (tracks+.cue), lossless]
Рейтинг:
(голосов: 1)



[img]{THEME}/images/logopost.png[/img]



100 Hits: Summer Reggae
Исполнитель: VA
Название сборника: 100 Hits: Summer Reggae
Год выпуска: 2010
Жанр: Reggae
Формат: FLAC (tracks+.cue)
Битрейт: lossless
Продолжительность: 06:11:58

CD 1: ▼
Продолжительность: 01:16:36

Треклист:

01. Althea & Donna - Uptown Top Ranking [03:56]
02. Asward - Shine [03:40]
03. Deborahe Glasgow & Shabba Ranks - Mr. Loverman [03:47]
04. Snow - Informer [04:30]
05. Kevin Lyttle - Turn Me On [03:14]
06. Mr. Vegas - Heads High [03:32]
07. Wayne Wonder - No Letting Go [03:23]
08. Keisha White Feat. Bob Marley - Ive Got Love [03:38]
09. Shinehead - Jamaican In New York [04:29]
10. Simply Red - Ghetto Girl [03:29]
11. Big Mountain - Baby I Love Your Way [04:28]
12. Inner Circle - Smoke Gets In My Eyes [03:37]
13. Maxie Priest & Richie Stevens - My Girls Dis [03:14]
14. Mighty Diamonds - Look In Your Eyes [03:51]
15. Tippa Irie - Hello Darling [03:35]
16. Gregory Isaacs - I Miss You [04:03]
17. Beres Hammond - Rise And Shine [03:44]
18. Daville Feat. Sean Paul - Always On My Mind [03:47]
19. Errol Dunkley - Island In The Sun [04:32]
20. Johnny Osbourne - You Sexy Thing [04:00]

Лог создания рипа ▼TextEAC extraction logfile from 16. December 2011, 9:49

Various / 100 Hits - Summer Reggae (CD1)

Used drive : HL-DT-STDVD-RAM GSA-H22N Adapter: 1 ID: 0

Read mode : Secure
Utilize accurate stream : Yes
Defeat audio cache : Yes
Make use of C2 pointers : No

Read offset correction : 102
Overread into Lead-In and Lead-Out : No
Fill up missing offset samples with silence : Yes
Delete leading and trailing silent blocks : No
Null samples used in CRC calculations : Yes
Used interface : Native Win32 interface for Win NT & 2000
Gap handling : Appended to previous track

Used output format : User Defined Encoder
Selected bitrate : 1024 kBit/s
Quality : High
Add ID3 tag : No
Command line compressor : C:/Program Files/Exact Audio Copy/FLAC/FLAC.EXE
Additional command line options : -8 -V -T "ARTIST=%artist%" -T "TITLE=%title%" -T "ALBUM=%albumtitle%" -T "DATE=%year%" -T "TRACKNUMBER=%tracknr%" -T "GENRE=%genre%" -T "PERFORMER=%albuminterpret%" -T "COMPOSER=%composer%" %haslyrics%--tag-from-file=LYRICS="%lyricsfile%"%haslyrics% -T "ALBUMARTIST=%albumartist%" -T "DISCNUMBER=%cdnumber%" -T "TOTALDISCS=%totalcds%" -T "TOTALTRACKS=%numtracks%" -T "COMMENT=%comment%" %source% -o %dest%

TOC of the extracted CD

Track | Start | Length | Start sector | End sector
---------------------------------------------------------
1 | 0:00.00 | 3:56.28 | 0 | 17727
2 | 3:56.28 | 3:40.05 | 17728 | 34232
3 | 7:36.33 | 3:47.63 | 34233 | 51320
4 | 11:24.21 | 4:30.
cd492e75fae48db26dea0d0e8a8dc86f4297a240(2010) VA / 100 Hits: Summer Reggae (Reggae) [FLAC (tracks+.cue), lossless] (2010) VA / 100 Hits: Summer Reggae (Reggae) [FLAC (tracks+.cue), lossless] " />

Аплоадер: Админ, дата: 25-03-2012, 21:25, торрент скачан: 359 раз

Понравилась раздача? Посмотрите эти:
  • (2013) Paul McCartney / New (Deluxe Edition) (Rock) [FLAC (image,+.cue), lo ...
  • (2013) Prodigy & The Alchemist / Albert Einstein (Underground Hip-Hop) [FLA ...
  • (2012) VA / Ibiza House Summer 2012 (House) [FLAC (tracks+.cue), lossless]
  • (2011) Disturbed / The Lost Children (Alternative Metal) [FLAC (tracks+.cue ...
  • (2007, 5 CDs Box set) VA / 100 Hits - Rock (Hard Rock, Classic Rock) [FLAC ...
  • (2012) Katie Melua / Secret Symphony (Jazz Pop, Vocal Jazz) [FLAC (tracks+. ...
  • (2012) Paul Van Dyk / Evolution (Progressive House, Trance) [FLAC (tracks+. ...
  • (2012) Marconi Union / Different Colours (Post Rock, Downtempo, Ambient) [F ...
  • (2008, Сборник) VA / Relax Piano - Yesterday - Trai Tim Mua Thu - Vol.7 (Ne ...
  • (2012) Tomandandy / Resident Evil: Retribution (Score, Soundtrack)[FLAC (tr ...
  • (1996) The Rasmus / Peep (Finnish Version) (Alternative Rock) [FLAC (tracks ...
  • (2012) Usher / Looking 4 Myself (Deluxe Version) (R&B, Soul) [FLAC (tracks+ ...
  • (2011) Mistabishi / Trip (Drum & Bass, Breakbeat) [FLAC (tracks+.cue), loss ...
  • (2012) Buckethead / Electric Sea (Experimental/Acoustic/Ambient/Rock) [FLAC ...
  • (2012) Les Friction / Les Friction (Alt. Rock/Neo-Classical/Orchestral) [FL ...
  • (2011) SeeS / The enD (Progressive/Math Metal) [FLAC (tracks+.cue), lossles ...
  • (2012) Our Lady Peace / Curve (Alternative/Rock) [FLAC (tracks+.cue), lossl ...
  • (2012) Nine Lashes / World We View (Alt.Rock/Alt.Metal/Christian) [FLAC (tr ...
  • (2012) Dash Berlin / #musicislife (Trance) [FLAC (tracks+.сue), lossless]
  • (2012) For Today / Immortal (Metalcore, Hardcore, Christian) [FLAC (tracks+ ...
  • Информация
    Посетители, находящиеся в группе Гости, не могут оставлять комментарии к данной публикации.