вход на сайт

Имя пользователя :
Пароль :

Восстановление пароля Регистрация
(2007) Хор Турецкого / Великая Музыка (2CD) (Choir, Folk, Aсapella) [FLAC (image+.сue), lossless]
Рейтинг:
(голосов: 1)



[img]{THEME}/images/logopost.png[/img]



Хор Турецкого Великая Музыка (2CD)
Исполнитель:Хор Турецкого
Страна: Россия
Альбом: Великая Музыка
Тип альбома: Студийный
Год выпуска: 2007
Жанр:Choir, Folk, Aсapella
Формат: FLAC (image+.сue)
Битрейт: lossless
Продолжительность: 02:11:38

CD 1 - Великая Музыка: ▼
Продолжительность: 01:04:01
|03:21|.:01:. Хава Нагила
|05:22|.:02:. Ich Hob Dir
|03:36|.:03:. Бублички
|03:06|.:04:. 7:40
|04:40|.:05:. Shiru Shalom
|04:43|.:06:. Yerushalaim
|03:04|.:07:. Abi Gesund
|02:05|.:08:. Шар голубой
|03:19|.:09:. Увезу Тебя я в тундру
|04:35|.:10:. Ой, мороз, мороз (feat. Н. Кадышева)
|03:35|.:11:. Песня старого извозчика
|02:37|.:12:. Паровоз (попурри)
|02:52|.:13:. Ты ж менэ пидманула
|03:36|.:14:. Мишка-одессит
|04:44|.:15:. Мурка
|03:03|.:16:. Синий туман
|05:37|.:17:. Попурри СССР
Лог EAC ▼Text
Exact Audio Copy V0.99 prebeta 5 from 4. May 2009

Отчёт EAC об извлечении, выполненном 18. июля 2011, 19:56

Хор Турецкого / Великая музыка (CD1)

Дисковод: Optiarc DVD RW AD-7201A Adapter: 0 ID: 0

Режим чтения : Достоверность
Использование точного потока : Да
Отключение кэша аудио : Да
Использование указателей C2 : Нет

Коррекция смещения при чтении : 48
Способность читать области Lead-in и Lead-out : Нет
Заполнение пропущенных сэмплов тишиной : Да
Удаление блоков с тишиной в начале и конце : Нет
При вычислениях CRC использовались нулевые сэмплы : Да
Интерфейс : Установленный внешний ASPI-интерфейс

Выходной формат : Внутренние WAV-операции
Формат сэмплов : 44.100 Гц; 16 бит; стерео


TOC извлечённого CD

Трек | Старт | Длительность | Начальный сектор | Конечный сектор
---------------------------------------------------------------------
1 | 0:00.00 | 3:22.63 | 0 | 15212
2 | 3:22.63 | 5:24.34 | 15213 | 39546
3 | 8:47.22 | 3:37.61 | 39547 | 55882
4 | 12:25.08 | 3:07.71 | 55883 | 69978
5 | 15:33.04 | 4:41.66 | 69979 | 91119
6 | 20:14.70 | 4:44.65 | 91120 | 112484
7 | 24:59.60 | 3:05.51 | 112485 | 126410
8 | 28:05.36 | 2:06.63 | 126411 | 135923
9 | 30:12.24 | 3:20.49 | 135924 | 150972
10 | 33:32.73 | 4:37.11 | 150973 &n
960037bc0693a8e4abe48c4121ae99bba217c263(2007) Хор Турецкого / Великая Музыка (2CD) (Choir, Folk, Aсapella) [FLAC (image+.сue), lossless] (2007) Хор Турецкого / Великая Музыка (2CD) (Choir, Folk, Aсapella) [FLAC (image+.сue), lossless] " />

Аплоадер: Админ, дата: 14-03-2012, 18:49, торрент скачан: 359 раз

Понравилась раздача? Посмотрите эти:
  • (2002) a-ha / Lifelines (Alternative Rock, Synth-pop ) [FLAC (image + .cue ...
  • (2012) Григорий Лепс / Полный вперёд (Шансон) [FLAC (image+.cue), Lossless ...
  • (2009) СЕРГЕЙ НАГОВИЦЫН / The Best Of - 2009 (Шансон) [FLAC (image+.cue) lo ...
  • (2000) Tic Tac Toe / Ist der Ruf erst ruiniert... (Rap,Hip-hop) [Lossless, ...
  • (2010) Мафик / Ангел (Шансон) [FLAC(image+cue), lossless]
  • (2004) Рома Жуков / Легендарные песни (Pop) [APE (image+.cue)]
  • (1994) Joy / Grand Collection (EuroDisco) [FLAC (image+.cue) lossless]
  • (2010) ST1M / Октябрь (Rap) [APE(image+.cue), lossless]
  • (2006) Батырхан Шукенов/ Отан Ана (Pop) [FLAC (image+.cue) lossless]
  • (2010) Батыр / Осторожно, милая девушка! (Pop) [FLAC (image+ cue)]
  • (2006) Tokio / puls 200 (Alternative Rock / Pop Rock) [FLAC (image+.cue) lo ...
  • (2010) ДиДюЛя / Аромат (flamenco, instrumental, folk) [APE (image + .cue), ...
  • (1981) Boney M / Christmas Album (UnRemaster) (Disco) [APE (image + .cue), ...
  • (2011) Within Temptation / The Unforgiving (Symphonic Gothic Metal) [FLAC ( ...
  • (2006) УЛЫТАУ / ULYTAU - Жумыр-Кылыш / Jumyr-Kylysh (ethnic / folk metal / ...
  • ( 2001) Воскресение / Звездная коллекция (Rock) [FLAC (image+.cue) lossless ...
  • (2007 , Сборник ) Хор Турецкого / Великая музыка (Classical) [MP3, 128/CBR ...
  • (2010) Lara Fabian / The Best of (2CD Limited Edition) (Pop) [Flac(image+.c ...
  • (Дискография, 2005-2008) Ёлка (R&B, Reggae, Pop) [APE (image+.cue); FLAC (i ...
  • (1995) Юрий Шатунов / Ты помнишь... (Pop) [FLAC(image+.cue), lossless]
  • (1988) Fausto Papetti / Grand Collection (POP, Jazz) [FLAC (image+.cue), lo ...
  • (2010) Александр Серов / Лучшие песни (серия «НОВАЯ КОЛЛЕКЦИЯ») (Pop) [Flac ...
  • (1995) Yaki-Da / Pride (Pop, Eurodance) [FLAC (image+.сue), lossless]
  • (2004) Ex-Сектор Газа / Огненный рай (Punk-Rock) [FLAC (image+.cue), lossle ...
  • (2008) Студия 80 / Придуманный Мир (Pop) [FLAC (image+.cue), lossless]
  • Информация
    Посетители, находящиеся в группе Гости, не могут оставлять комментарии к данной публикации.