вход на сайт

Имя пользователя :
Пароль :

Восстановление пароля Регистрация
(2002) Dschinghis Khan / Star Collection (2CD) (Disco) [APE (image+.cue), lossless]
Рейтинг:
(голосов: 1)



[img]{THEME}/images/logopost.png[/img]



Исполнитель:Dschinghis Khan
Альбом: Star Collection (2CD)
Тип альбома: Студийный, the EU (BMG Ariola Miller GmbH)
Год выпуска: 2002
Жанр: Disco
Формат: APE+.сue
Битрейт: lossless
Продолжительность: 02:0725

Трэклист: CD-1 (01:05:41):
1. The Story Of Dschinghis Khan Part I (5.55)
2. Moskau (4.30)
3. Hadshi Halef Omar (3.47)
4. Klabautermann (4.10)
5. Tut Ench Amun (3.41)
6. Madagaskar (4.37)
7. Rom (5.51)
8. Pistolero (4.17)
9. Samurai (4.40)
10. Dudelmoser (3.42)
11. Rocky Marciano (3.16)
12. Corrida (3.32)
13. Komm Doch Heim (4.17)
14. Aladin (3.26)
15. Der Verrater (5.34)


Отчет EAC:
▼Dschinghis Khan-Star Collection (CD 1)
Exact Audio Copy V0.99 prebeta 4 from 23. January 2008
Отчёт EAC об извлечении, выполненном 16. ноября 2009, 15:38
Dschinghis Khan / Star Collection (CD 1)
Дисковод: Optiarc DVD RW AD-7191S Adapter: 3 ID: 0
Режим чтения : Достоверность
Использование точного потока : Да
Отключение кэша аудио : Да
Использование указателей C2 : Нет
Коррекция смещения при чтении : 6
Способность читать области Lead-in и Lead-out : Нет
Заполнение пропущенных сэмплов тишиной : Да
Удаление блоков с тишиной в начале и конце : Нет
При вычислениях CRC использовались нулевые сэмплы : Да
Интерфейс : Встроенный Win32-интерфейс для Win NT/2000
Выходной формат : Внутренние WAV-операции
Формат сэмплов : 44.100 Гц; 16 бит; стерео
TOC извлечённого CD
Трек | Старт | Длительность | Начальный сектор | Конечный сектор
---------------------------------------------------------------------
1 | 0:00.00 | 5:56.37 | 0 | 26736
2 | 5:56.37 | 4:31.57 | 26737 | 47118
3 | 10:28.19 | 3:48.52 | 47119 | 64270
4 | 14:16.71 | 4:11.33 | 64271 | 83128
5 | 18:28.29 | 3:43.00 | 83129 | 99853
6 | 22:11.29 | 4:38.50 | 99854 | 120753
7 | 26:50.04 | 5:52.74 | 120754 | 147227
8 | 32:43.03 | 4:19.10 | 147228 | 166662
9 | 37:02.13 | 4:41.74 | 166663 | 187811
10 | 41:44.12 | 3:43.71 | 187812 | 204607
11 | 45:28.08 | 3:18.01 | 204608 | 219458
12 | 48:46.09 | 3:33.39 | 219459 | 235472
13 | 52:19.48 | 4:19.03 | 235473 | 254900
14 | 56:38.51 | 3:28.06 | 254901 | 270506
15 | 60:06.57 | 5:34.51 | 270507 | 295607
Характеристики диапазона извлечения и сообщения об ошибках
Выбранный диапазон
Имя файла D:audioDschinghis Khan - Star Collection (CD 1)Dschinghis Khan - Star Collection (CD 1).wav
Пиковый уровень 99.0 %
Качество диапазона 100.0 %
CRC копии F15A7DED
Копирование... OK
Ошибок не произошло
Конец отчёта

Отчет ABC:
▼Filename: Dschinghis Khan - Star Collection (CD 1).ape (431.36mb)
Source: CDDA (probability 100%)
Detect Mode : 8
Date: 14.02.2010 01-20-25
---------------------------------------------------------------------------
File Generated by Ape Batch Check 1.4a (build 29.04.2008)



Трэклист: CD-2 (01:01:44):
1. The Story Of Dschinghis Khan Part II (4.32)
2. Mexico (4.53)
3. Wir sitzen alle im selben Boot (4.00)
4. Loreley (4.04)
5. Sahara (3.00)
6. Himalaya (4.16)
7. Robinson (3.38)
8. Pustza (3.14)
9. Ole Ole (4.16)
10. Mata Hari (4.00)
11. Ivanhoe (3.41)
12. Die Fremden (4.55)
13. Los Gitanos (4.18)
14. Goodbye Hawaii (4.43)
15. Life Is Good - Life Is Scheen (3.49)


Отчет EAC:
▼Dschinghis Khan-Star Collection (CD 2)
Exact Audio Copy V0.99 prebeta 4 from 23. January 2008
Отчёт EAC об извлечении, выполненном 16. ноября 2009, 16:29
Dschinghis Khan / Star Collection (CD 2)
Дисковод: Optiarc DVD RW AD-7191S Adapter: 3 ID: 0
Режим чтения : Достоверность
Использование точного потока : Да
Отключение кэша аудио : Да
Использование указателей C2 : Нет
Коррекция смещения при чтении : 6
Способность читать области Lead-in и Lead-out : Нет
Заполнение пропущенных сэмплов тишиной : Да
Удаление блоков с тишиной в начале и конце : Нет
При вычислениях CRC использовались нулевые сэмплы : Да
Интерфейс : Встроенный Win32-интерфейс для Win N
2681dcf6104afc532afcbb8e259882159b5f505f(2002) Dschinghis Khan / Star Collection (2CD) (Disco) [APE (image+.cue), lossless] (2002) Dschinghis Khan / Star Collection (2CD) (Disco) [APE (image+.cue), lossless] " />

Аплоадер: Админ, дата: 14-02-2010, 13:49, торрент скачан: 359 раз

Понравилась раздача? Посмотрите эти:
  • (дискография, 1983-2008) MADONNA (pop / dance) [WavPack (image+.cue) lossle ...
  • (2009) НОЧНЫЕ СНАЙПЕРЫ — Южный полюс (русский рок, сингл) [FLAC (lossless), ...
  • (2008) VANESSA MAE / Star Mark Greatest Hits [2CD] (Neoclassical / Violin / ...
  • (2009) СЕРГЕЙ НАГОВИЦЫН / The Best Of - 2009 (Шансон) [FLAC (image+.cue) lo ...
  • (1999, сборник) VA / Romantic Collection(Pok) [FLAC (track+.cue) lossless]
  • (1998) The Ventures & The Shadows / Grand Collection(Instrumental, Guit ...
  • (1999) Ennio Morricone / Romantic Collection (Classical) [FLAC (image+.cue) ...
  • (1994) Joy / Grand Collection (EuroDisco) [FLAC (image+.cue) lossless]
  • (2003) Joe Dassin / Grand Collection (PopMusic, Chanson) [FLAC (track+ cue) ...
  • (2002) Ирина Аллегрова / Grand Collection (Pop) [APE (image+.cue) lossless] ...
  • (2006) Батырхан Шукенов/ Отан Ана (Pop) [FLAC (image+.cue) lossless]
  • (1998) Pharao / The Return (Eurodance) [APE (image+.cue)]
  • (1981) Boney M / Christmas Album (UnRemaster) (Disco) [APE (image + .cue), ...
  • (1984) Boney M / Ten Thousand Lightyears (Disco) [APE (image+.cue) lossles ...
  • (1985) BABYS GANG / Challenger (Pop,Italo Disco) [APE(image+.cue)lossless] ...
  • (2004) Genesis / Platinum Collection (Art Rock) [FLAC (image+.cue), lossles ...
  • (2011) Blues Cousins / KGB Blues (Blues Rock) [FLAC (image+.cue), lossless] ...
  • (2011) АукцЫон / Юла (Rock) [APE (image+.cue), lossless]
  • (2003) Joe Dassin / Grand Collection (Pop/Chanson) [FLAC (tracks+.cue), los ...
  • (2009) Rihanna / Rated R (R`n`B) [APE (image+.cue)]
  • 1979 - Dschinghis Khan (Pop) [MP3 256 CBR]
  • (1993) Любовь Успенская / Любимый (шансон) [APE (image+.cue), lossless]
  • (2010, сборник) RАЙ / Black Star party (Пашу - 27!) promo mix by DJ Miller ...
  • (2009) Челси / Точка возврата (Pop) [APE (image+.cue), lossless]
  • (1988) Fausto Papetti / Grand Collection (POP, Jazz) [FLAC (image+.cue), lo ...
  • Информация
    Посетители, находящиеся в группе Гости, не могут оставлять комментарии к данной публикации.