вход на сайт

Имя пользователя :
Пароль :

Восстановление пароля Регистрация
(2012, Сборник) VA / Вечерняя Коллекция (Звуки природы) (Relax) [FLAC (tracks+.cue), lossless]
Рейтинг:
(голосов: 1)



[img]{THEME}/images/logopost.png[/img]



Сборник
Исполнитель: Various Artists
Название сборника: Вечерняя Коллекция (Звуки природы)
Страна: Россия
Год выпуска: 2012
Жанр: Relax
Аудиокодек: FLAC (*.flac)
Тип рипа: tracks+.cue
Битрейт: lossless
Лог файл: присутствуют
Продолжительность: 01:10:41

Tреклист:
▼ 1. Звуки природы - Peaceful Widerness (11:26)
2. Звуки природы - Mountain Moods (5:20)
3. Звуки природы - Mysterious Rainforest (6:00)
4. Звуки природы - Symphony Of Whales (6:39)
5. Звуки природы - Fantastic Sailboat Voyage (5:41)
6. Звуки природы - Dolphins Delight (5:13)
7. Звуки природы - Loonscape (3:52)
8. Звуки природы - Subarctic Sound (4:04)
9. Звуки природы - Ocean Of Dreams (4:43)
10. Звуки природы - Roaring Thunderstorms (5:02)
11. Звуки природы - Rippling Backyard Stream (6:55)
12. Звуки природы - Enchanting Everglades (5:39)

"EAC log" ▼Exact Audio Copy V1.0 beta 1 from 15. November 2010

EAC extraction logfile from 16. December 2010, 15:16

Звуки природы / Вечерняя коллекция

Used drive : TEAC CD-W548E Adapter: 1 ID: 1

Read mode : Secure
Utilize accurate stream : Yes
Defeat audio cache : Yes
Make use of C2 pointers : No

Read offset correction : 12
Overread into Lead-In and Lead-Out : No
Fill up missing offset samples with silence : Yes
Delete leading and trailing silent blocks : No
Null samples used in CRC calculations : Yes
Used interface : Native Win32 interface for Win NT & 2000
Gap handling : Appended to previous track

Used output format : User Defined Encoder
Selected bitrate : 1024 kBit/s
Quality : High
Add ID3 tag : No
Command line compressor : C: Program FilesExact Audio CopyFLACFLAC.EXE
Additional command line options : -8 -V -T "ARTIST=%a" -T "TITLE=%t" -T "ALBUM=%g" -T "DATE=%y" -T "TRACKNUMBER=%n" -T "GENRE=%m" -T "COMMENT=EAC FLAC -8" %s

TOC of the extracted CD

Track | Start | Length | Start sector | End sector
---------------------------------------------------------
1 | 0:00.00 | 11:26.08 | 0 | 51457
2 | 11:26.08 | 5:20.12 | 51458 | 75469
3 | 16:46.20 | 6:00.48 | 75470 | 102517
4 | 22:46.68 | 6:39.32 | 102518 | 132474
5 | 29:26.25 | 5:41.37 | 132475 | 158086
6 | 35:07.62 | 5:13.46 | 158087 | 181607
7 | 40:21.33 | 3:52.30 | 181608 | 199037
8 | 44:13.63 | 4:04.51 | 199038 | 217388
9 | 48:18.39 | 4:43.68 | 217389 | 238681
10 | 53:02.32 | 5:02.14 | 238682 | 261345
11 | 58:04.46 | 6:55.08 | 261346 | 292478
12 | 64:59.54 | 5:39.51 | 292479 | 317954

Track 1

Filename D:ДЛЯ РАЗДАЧВЕЧЕРНЯЯ КОЛЛЕКЦИЯ - ЗВУКИ ПРИРОДЫFLACPeaceful Widerness.wav

Pre-gap length 0:00:02.00

Peak level 100.0 %
Extraction speed 3.3 X
Track quality 100.0 %
Test CRC 85B16CC1
Copy CRC 85B16CC1
Copy OK

Track 2

Filename D:ДЛЯ РАЗДАЧВЕЧЕРНЯЯ КОЛЛЕКЦИЯ - ЗВУКИ ПРИРОДЫFLACMountain Moods.wav

Peak level 93.6 %
Extraction speed 3.1 X
Track quality 100.0 %
Test CRC 92086D4A
Copy CRC 92086D4A
Copy OK

Track 3

Filename D:ДЛЯ РАЗДАЧВЕЧЕРНЯЯ КОЛЛЕКЦИЯ - ЗВУКИ ПРИРОДЫFLACMysterious Rainforest.wav

Peak level 82.7 %
Extraction speed 2.7 X
Track quality 99.9 %
Test CRC 04696E53
Copy CRC 04696E53
Copy OK

Track 4

Filename D:ДЛЯ РАЗДАЧВЕЧЕРНЯЯ КОЛЛЕКЦИЯ - ЗВУКИ ПРИРОДЫFLACSymphony Of Whales.wav

Peak level 100.0 %
Extraction speed 3.2 X
Track quality 100.0 %
Test CRC 6283E8F3
Copy CRC 6283E8F3
Copy OK

Track 5

Filename D:ДЛЯ РАЗДАЧВЕЧЕРНЯЯ КОЛЛЕКЦИЯ - ЗВУКИ ПРИРОДЫFLACFantastic Sailboat Voyage.wav

Peak level 88.3 %
Extraction speed 3.1 X
Track quality 100.0 %
Test CRC A7A06486
Copy CRC A7A06486
Copy OK

Track 6

Filename D:ДЛЯ РАЗДАЧВЕЧЕРНЯЯ КОЛЛЕКЦИЯ - ЗВУКИ ПРИРОДЫFLACDolphins Delight.wav

Peak level 100.0 %
Extraction speed 3.1 X
Track quality 100.0 %
Test CRC 2B4061CD
Copy CRC 2B4061CD
Copy OK

Track 7

Filename D:ДЛЯ РАЗДАЧВЕЧЕРНЯЯ КОЛЛЕКЦИЯ - ЗВУКИ ПРИРОДЫFLACLoonscape.wav

Peak level 88.9 %
Ext
c24f98fb600f51112233d184925455052f1132c5(2012, Сборник) VA / Вечерняя Коллекция (Звуки природы) (Relax) [FLAC (tracks+.cue), lossless] (2012, Сборник) VA / Вечерняя Коллекция (Звуки природы) (Relax) [FLAC (tracks+.cue), lossless] " />

Аплоадер: Админ, дата: 9-02-2013, 18:41, торрент скачан: 359 раз

Понравилась раздача? Посмотрите эти:
  • (2013) Girls Generation (SNSD) - Galaxy Supernova / Galaxy Supernova (KPop) ...
  • (Дискография) GORILLAZ (Trip-Hop) [FLAC (tracks + .cue) lossless]
  • (2011) Orjan Nilsen / In My Opinion (Trance) [FLAC (tracks+.cue), lossless] ...
  • (2010, сборник) VA / CDeelder Box (Swing) [FLAC (tracks+.cue), lossless]
  • (2006-2007, сборник) VA / Звуки природы для детей : Коллекция (4 CD) (Relax ...
  • (2012) High Contrast / The Agony & The Ecstasy (Drum and Bass) [FLAC (track ...
  • (2006) The Rasmus / Shot (Single) (Alternative Rock) [FLAC (tracks+.cue), l ...
  • (2004, сборник) VA - Звуки природы-2 (Meditative) [мр3, 256]
  • (Relax) Звуки природы. Горящий огонь. [2005, MP3, 320 kbps]
  • (Звуки природы) Живая вода [2004, MP3, 320 kbps]
  • (Звуки природы) Звуки дождя и грозы / Electrifying Thunderstorms [2005, MP3 ...
  • Звуки леса. [2007, MP3, 320kbps]
  • (2007,сборник) Звуки природы - Здоровый сон у моря (Релакс) [mp3,320CBR]
  • (2009) Miley Cyrus / The Time of Our Lives (Pop) [FLAC (tracks+.cue), lossl ...
  • (2011) Linkin Park / Iridescent (Alternative Rock) [FLAC(image+.cue), lossl ...
  • (2001) Лучшие звуки природы (Звуки природы) [FLAC (image+.cue), lossless]
  • (2011) This Will Destroy You / Tunnel Blanket (Post Rock) [FLAC (tracks+.cu ...
  • (2004) Дельфин / Запись концерта 19.11.04 (Alternative|Experimental) [FLAC ...
  • (1994, 5 CD Box set) Echoes Of Nature (Звуки природы) / The Natural Sounds ...
  • (2011) Ink Stained Promises / Relations. (Metalcore, Hardcore) [FLAC (track ...
  • Информация
    Посетители, находящиеся в группе Гости, не могут оставлять комментарии к данной публикации.