вход на сайт

Имя пользователя :
Пароль :

Восстановление пароля Регистрация
(2013) Russkaja - Energia! (Folk / Ska / Rock), [FLAC (image+.cue), lossless]
Рейтинг:
(голосов: 1)



[img]{THEME}/images/logopost.png[/img]



Исполнитель: Russkaja
Страна: Austria
Альбом: Energia!
Тип альбома: Студийный
Год выпуска: 2013
Жанр: Folk / Ska / Rock
Издатель: Mazzar (лиц. Napalm Records)
Аудиокодек: FLAC (*.flac)
Тип рипа: image+.cue
Битрейт: lossless
Продолжительность: 38:48

Об исполнителе
Состав
Engel Mayr : Гитара
Dimitrij Miller : Бас-гитара
Mario Stübler : Барабаны
Hans-Georg Guternigg : Бэк-вокал, Trumpet, Trombone, Potete
Rainer Gutternigg : Trumpet
Ulrike Müllner : Violin
Georgij Alexandrowitsch Makazaria : Вокал

Краткое описание: Russkaja группа из Австрии, но есть в ее составе и пара наших засланных казачков, в том числе и вокалист, бывший участник группы Stahlhammer, с которыми он записал два альбома. У Russkaja совершенно очаровательные цыганские проигрыши, выполненные скорее в стиле южно-славянских цыган. У них мощная панковская энергетика с духовой секцией, тексты на русском языке и зачастую отдают шансоном, но не современым блатняком, а именно шансоном. И все это на фоне просто потрясающих аранжировок с постоянными отсылами в блатняк, хард-рок, трэш, джаз, диско.


01 - Energia [03:00]
02 - Barada[03:17]
03 - Radost Moja [02:51]
04 - Autodrom[03:01]
05 - Istanbul[03:20]
06 - Violina Mia [03:38]
07 - Kartuli Vino[02:52]
08 - Surrealnaja [03:08]
09 - Dikije Deti [03:31]
10 - Ajajaj[03:32]
11 - Tanzi Tanzi [03:14]
12 - Sorry [03:24]


Лог создания рипа ▼TextExact Audio Copy V1.0 beta 3 from 29. August 2011

EAC extraction logfile from 20. July 2013, 20:55

Russkaja / Energia (MZRCD615)

Used drive : PLEXTOR BD-R PX-B940SA Adapter: 0 ID: 4

Read mode : Secure
Utilize accurate stream : Yes
Defeat audio cache : Yes
Make use of C2 pointers : No

Read offset correction : 667
Overread into Lead-In and Lead-Out : No
Fill up missing offset samples with silence : Yes
Delete leading and trailing silent blocks : No
Null samples used in CRC calculations : Yes
Used interface : Installed external ASPI interface

Used output format : User Defined Encoder
Selected bitrate : 1024 kBit/s
Quality : High
Add ID3 tag : Yes
Command line compressor : E:Program Files (x86)Exact Audio CopyFlacflac.exe
Additional command line options : -V -8 -T "Date=%year%" -T "Genre=%genre%" %source%

TOC of the extracted CD

Track | Start | Length | Start sector | End sector
---------------------------------------------------------
1 | 0:00.00 | 3:00.56 | 0 | 13555
2 | 3:00.56 | 3:18.03 | 13556 | 28408
3 | 6:18.59 | 2:52.39 | 28409 | 41347
4 | 9:11.23 | 3:02.62 | 41348 | 55059
5 | 12:14.10 | 3:21.22 | 55060 | 70156
&nb
b86570642354e5ea173af83215df7b30740c5818(2013) Russkaja - Energia! (Folk / Ska / Rock), [FLAC (image+.cue), lossless] (2013) Russkaja - Energia! (Folk / Ska / Rock), [FLAC (image+.cue), lossless] " />

Аплоадер: Админ, дата: 20-11-2013, 21:20, торрент скачан: 359 раз

Понравилась раздача? Посмотрите эти:
  • (1996) George Michael / Older (1st Press Japan) (Electronic, Pop/Rock) [FLA ...
  • (1996) Константин Никольский / Один взгляд назад (Rock ) [APE (image + .cu ...
  • (2013) Yes / Close To The Edge (1972, remixed, CD+Blu-ray) (Progressive Roc ...
  • (2013) Buddy Guy / Rhythm & Blues (2CD) (Blues) [FLAC (image+.cue), Lossles ...
  • (2013) Innes Sibun / Lost In The Wilderness (Blues Rock, Rock) [FLAC (image ...
  • (2013) The Hamburg Blues Band / Friends For A LIVEtime (Blues Rock, Rock) [ ...
  • (2013) Leslie West / Still Climbing (Rock, Hard Rock, Blues Rock) [FLAC (im ...
  • (2013) Linkin Park / Recharged (Electronic Rock / Electro House) [FLAC (ima ...
  • (2013) Paul McCartney / New (Deluxe Edition) (Rock) [FLAC (image,+.cue), lo ...
  • (2013) Elton John / The Diving Board (Rock, Pop Rock) [FLAC (image+.cue), L ...
  • (2013) Govt Mule / Shout! (2CD) (Blues Rock) [FLAC (image+.cue), Lossless]
  • (2013) Linkin Park & Steve Aoki / A Light That Never Comes (Electronic Rock ...
  • (2013) Bonnie Tyler / Rocks And Honey (Rock, Pop, Folk, World, Country) [FL ...
  • (2008) The Magic Of Nomads / Bulbul Zaman (folk-ethnic / smooth jazz / inst ...
  • (2011) Linkin Park / LP Underground 11 (Alternative Rock) [FLAC (Image+cue) ...
  • (Дискография, 1988-2011) Kingdom Come (Hard&Heavy,Glam Metal) [FLAC (image+ ...
  • (2012) Uriah Heep / Logical Revelations (Hard Rock) [FLAC (image +.cue), lo ...
  • (2012) Christina Aguilera / The Best (Unofficial) (Pop) [FLAC (image+.cue), ...
  • (2011) Linkin Park / Iridescent (Alternative Rock) [FLAC(image+.cue), lossl ...
  • (2011) Ленинград / Хна (Rock) [FLAC (tracks+.cue), lossless]
  • (2009) Mystica / Second Dive (Trance, Ambient & Downtempo, Chill Out) [FLAC ...
  • (2012) Anneke van Giersbergen / Everything Is Changing (Alternative Rock/Fe ...
  • (2011) Volumes / Via (Progressive Metalcore/Math Metal) [FLAC (image+.cue), ...
  • (2012) Fox / 2012 (Melodic Hard Rock) [FLAC (image +.cue), lossless]
  • (2011) Gorillaz - The Singles Collection 2001-2011 (Alternative / Hip-Hop / ...
  • Информация
    Посетители, находящиеся в группе Гости, не могут оставлять комментарии к данной публикации.