вход на сайт

Имя пользователя :
Пароль :

Восстановление пароля Регистрация
(1995) Corona / The Rhythm Of The Night (Japan) (Eurodance) [FLAC (image+.cue), lossless]
Рейтинг:
(голосов: 1)



[img]{THEME}/images/logopost.png[/img]



Исполнитель: Corona
Страна: Japan
Альбом: The Rhythm Of The Night
Тип альбома: Студийный
Год выпуска: 1995
Жанр: Eurodance
Аудиокодек: FLAC (*.flac)
Тип рипа: image+.cue
Битрейт: lossless
Продолжительность:01:05:27

Tреклист:
[03:47] 01. Corona - Baby Baby
[03:26] 02. Corona - Try Me Out
[03:14] 03. Corona - Get Up And Boogie
[03:15] 04. Corona - I Dont Wanna Be A Star
[03:44] 05. Corona - I Want Your Love
[03:38] 06. Corona - In The Name Of Love
[03:35] 07. Corona - I Gotta Keep Dancin
[04:24] 08. Corona - The Rhythm Of The Night
[04:03] 09. Corona - Baby I Need Your Love
[03:16] 10. Corona - Dont Go Breaking My Heart
[03:34] 11. Corona - When I Give My Love
[03:28] 12. Corona - Do You Want Me
[05:38] 13. Corona - You Gotta Be Movin
[03:41] 14. Corona - The Rhythm Of The Night (Rapino Bros 7 Single)
[06:07] 15. Corona - Baby Baby (Dancing Divaz Club Mix)
[06:30] 16. Corona - The Rhythm Of The Night (Lee Marrow Space Mix)

Лог создания рипа (EAC log) ▼TextExact Audio Copy V1.0 beta 3 from 29. August 2011

Отчёт EAC об извлечении, выполненном 4. апреля 2012, 21:33

Corona / The Rhythm Of The Night (Japan)

Дисковод: PIONEER DVD-RW DVR-218L Adapter: 1 ID: 0

Режим чтения : Достоверность
Использование точного потока : Да
Отключение кэша аудио : Да
Использование указателей C2 : Нет

Коррекция смещения при чтении : 6
Способность читать области Lead-in и Lead-out : Нет
Заполнение пропущенных сэмплов тишиной : Да
Удаление блоков с тишиной в начале и конце : Нет
При вычислениях CRC использовались нулевые сэмплы : Да
Интерфейс : Встроенный Win32-интерфейс для Win NT/2000

Выходной формат : Внутренние WAV-операции
Формат сэмплов : 44.100 Гц; 16 бит; стерео

TOC извлечённого CD

Трек | Старт | Длительность | Начальный сектор | Конечный сектор
---------------------------------------------------------------------
1 | 0:00.00 | 3:47.33 | 0 | 17057
2 | 3:47.33 | 3:26.47 | 17058 | 32554
3 | 7:14.05 | 3:14.23 | 32555 | 47127
4 | 10:28.28 | 3:15.12 | 47128 | 61764
5 | 13:43.40 | 3:44.25 | 61765 | 78589
6 | 17:27.65 | 3:38.23 | 78590 | 94962
7 | 21:06.13 | 3:35.17 | 94963 | 111104
8 | 24:41.30 | 4:24.20 | 111105 | 130924
9 | 29:05.50 | 4:03.43 | 130925 | 149192
10 | 33:09.18 | 3:16.62 | 149193  
002632d3496b22051537c25ad429a3e30dcba300(1995) Corona / The Rhythm Of The Night (Japan) (Eurodance) [FLAC (image+.cue), lossless] (1995) Corona / The Rhythm Of The Night (Japan) (Eurodance) [FLAC (image+.cue), lossless] " />

Аплоадер: Админ, дата: 26-01-2014, 13:14, торрент скачан: 359 раз

Понравилась раздача? Посмотрите эти:
  • (2000) Lenny Kravitz / Greatest Hits (Rock, Funk) [FLAC (image+.cue), lossl ...
  • (2002) a-ha / Lifelines (Alternative Rock, Synth-pop ) [FLAC (image + .cue ...
  • (2010-2012 Сборник) VA | Суперхиты дискотеки 90х 3 CD (Eurodance|Euro-House ...
  • (2012) Григорий Лепс / Полный вперёд (Шансон) [FLAC (image+.cue), Lossless ...
  • (2005) VA | The Greats Hits: Techno Dance (Pop) [MP3,128|CBR]
  • (2007год, сборник) VA / Короли Eurodance 90-х Vol.1,2 (EuroDance) [MP3, 256 ...
  • (2011, сборник) VA / Танцевальные Хиты 90-Х Зарубежный (Pop,Eurodance) [MP3 ...
  • (1994) Joy / Grand Collection (EuroDisco) [FLAC (image+.cue) lossless]
  • (2006) Батырхан Шукенов/ Отан Ана (Pop) [FLAC (image+.cue) lossless]
  • (1998) Pharao / The Return (Eurodance) [APE (image+.cue)]
  • (2011) Within Temptation / The Unforgiving (Symphonic Gothic Metal) [FLAC ( ...
  • (2011) Blues Cousins / KGB Blues (Blues Rock) [FLAC (image+.cue), lossless] ...
  • VA / Eurodance Video Collection (1990-1998) [2009, Eurodance, DVD5]
  • Toyota Corona, Caldina (2&4WD)
  • Toyota Corona, Caldina, Corona-Premio 1992-1998. Устройство, техническое об ...
  • (1995) Юрий Шатунов / Ты помнишь... (Pop) [FLAC(image+.cue), lossless]
  • (1988) Fausto Papetti / Grand Collection (POP, Jazz) [FLAC (image+.cue), lo ...
  • (1995) Yaki-Da / Pride (Pop, Eurodance) [FLAC (image+.сue), lossless]
  • (2004) Ex-Сектор Газа / Огненный рай (Punk-Rock) [FLAC (image+.cue), lossle ...
  • (2008) Студия 80 / Придуманный Мир (Pop) [FLAC (image+.cue), lossless]
  • Информация
    Посетители, находящиеся в группе Гости, не могут оставлять комментарии к данной публикации.