вход на сайт

Имя пользователя :
Пароль :

Восстановление пароля Регистрация
(1994, 5 CD Box set) Echoes Of Nature (Звуки природы) / The Natural Sounds Of The Wilderness (Environmental, Meditation) [FLAC (image+.сue), lossless]
Рейтинг:
(голосов: 1)



[img]{THEME}/images/logopost.png[/img]




The Natural Sounds Of The Wilderness (5 CD)
Исполнитель:Echoes Of Nature
Страна: Germany
Год выпуска:1994
Жанр:Environmental, Meditation
Формат: FLAC (image+.сue)
Битрейт: lossless
Log-файл: Присутствует
Продолжительность: 04:01:16

Описание: Сборник из серии Звуков Природы, состоящий из 5 дисков. Прослушайте произведение самого оригинального и гениального композитора, исполнители которого неповторимы и прекрасны. Этот композитор – Природа.
Звуки чистые,без музыки!


1994 - American Wilds ▼

Продолжительность: 00:47:39

Tреклист:
01.Deep Woods | 04:08
02.Songbirds | 03:36
03.Wilderness Rainshower | 14:54
04.Frog Chorus | 07:36
05.Crickets & Wolves | 08:56
06.Cicadas | 05:27
07.Midnight Serenade | 02:58

Лог создания рипа ▼TextExact Audio Copy V0.99 prebeta 4 from 23. January 2008

EAC extraction logfile from 28. March 2009, 2:45

Various / Echos Of Nature: American Wilds

Used drive : PIONEER DVD-RW DVR-111D Adapter: 1 ID: 0

Read mode : Secure
Utilize accurate stream : Yes
Defeat audio cache : Yes
Make use of C2 pointers : No

Read offset correction : 48
Overread into Lead-In and Lead-Out : No
Fill up missing offset samples with silence : Yes
Delete leading and trailing silent blocks : No
Null samples used in CRC calculations : Yes
Used interface : Native Win32 interface for Win NT & 2000

Used output format : Internal WAV Routines
Sample format : 44.100 Hz; 16 Bit; Stereo


TOC of the extracted CD

Track | Start | Length | Start sector | End sector
---------------------------------------------------------
1 | 0:00.00 | 4:08.57 | 0 | 18656
2 | 4:08.57 | 3:36.58 | 18657 | 34914
3 | 7:45.40 | 14:54.40 | 34915 | 102004
4 | 22:40.05 | 7:36.50 | 102005 | 136254
5 | 30:16.55 | 8:56.50 | 136255 | 176504
6 | 39:13.30 | 5:27.20 | 176505 | 201049
7 | 44:40.50 | 2:58.35 | 201050 | 214434


Range status and errors

Selected range

Filename N: Р А З Д А Ч ИEchoes Of NatureVarious - Echos Of Nature American Wilds.wav

Peak level 49.3 %
Range quality 100.0 %
Test CRC 5EF747B7
Copy CRC 5EF747B7
Copy OK

No errors occurred


AccurateRip summary

Track 1 cannot be verified as accurate (confidence 5) [59D020FE], AccurateRip returned [B83CA79D]
Track 2 cannot be verified as accurate (confidence 5) [7434129A], AccurateRip returned [360BCEA2]
Track 3 cannot be verified as accurate (confidence 5) [89DF8703], AccurateRip returned [974D63EE]
Track 4 cannot be verified as accurate (confidence 6) [2BCB1468], AccurateRip returned [242B7D89]
Track 5 cannot be
679e1cafa3f4477712cb9fc2f92513f163d63dac(1994, 5 CD Box set) Echoes Of Nature (Звуки природы) / The Natural Sounds Of The Wilderness (Environmental, Meditation) [FLAC (image+.сue), lossless] (1994, 5 CD Box set) Echoes Of Nature (Звуки природы) / The Natural Sounds Of The Wilderness (Environmental, Meditation) [FLAC (image+.сue), lossless] " />

Аплоадер: Админ, дата: 13-03-2012, 12:15, торрент скачан: 359 раз

Понравилась раздача? Посмотрите эти:
  • (2013) Мумий Тролль / SOS Матросу - 2013, (Rock) [FLAC (image+.cue), lossle ...
  • (2002) Urker / Уркер / Made In Kazakhstan (Pop, Ethno) [FLAC (image+.cue), ...
  • (2012, Сборник) VA / Вечерняя Коллекция (Звуки природы) (Relax) [FLAC (trac ...
  • ( Soundtrack,1999) VA - American Beauty Original Motion Picture Soundtrack ...
  • (1989) Kaoma / Lambada (lambada / latin / ethnic) [FLAC (image+.cue), lossl ...
  • (2010) Ассаи / Лифт (Rap) [FLAC(image+.cue), lossless]
  • (1968) Ten Years After / Undead (Rock / Blues / Blues Rock) [Flac (tracks+. ...
  • (2003) Пикник / Говорит и показывает (Полная история) (Rock) [WavPack (imag ...
  • (Дискография, 1985 - 2009) Sandra (Pop) [APE (image+.cue), FLAC (image+.cue ...
  • (2011, 5CD Box set) Boney M / Original Album Classics (Reggae, Disco, R&B, ...
  • (1984) Van Halen / 1984 (Japanese 1984 SHM-CD Edition) (Hard & Heavy) [APE ...
  • (Дискография, 1987-1999) Obliveon (Technical Thrash Metal) [FLAC (image+.cu ...
  • (2009) Miley Cyrus / The Time of Our Lives (Pop) [FLAC (tracks+.cue), lossl ...
  • (2011) Linkin Park / Iridescent (Alternative Rock) [FLAC(image+.cue), lossl ...
  • (2011) Rammstein / Mein Land (Neue Deutsche Harte, Industrial, Tanz-Metal) ...
  • (2011) Adriano Celentano / Facciamo Finta Che Sia Vero (POP) [FLAC (image+. ...
  • (2011) Сурганова & Оркестр / Увидимся скоро (Rock) [FLAC (image+.cue), loss ...
  • (2011) Metallica / Beyond Magnetic (Thrash Metal) [FLAC (image+.cue), lossl ...
  • (2012) Adrenaline Mob / Omerta (Heavy Metal/Progressive/Nu-Metal) [FLAC (im ...
  • (2012) Crippled Black Phoenix / (Mankind) The Crafty Ape (Alternative/Indie ...
  • (2011) Sylvan / Sceneries (Neo-Progressive) [FLAC (image+.cue), lossless]
  • (2010) Татьяна Буланова / Романсы (Pop) [FLAC (image+.cue), lossless]
  • (2012) KoRn feat. Skrillex / Chaos Lives In Everything (UK Promo) (Nu-metal ...
  • (2011) Lou Reed & Metallica / Lulu (Heavy Metal, Hard Rock) [FLAC (image+.c ...
  • (2010) Punish My Heaven / First Punishment (Melodic Death Metal, Metalcore) ...
  • Информация
    Посетители, находящиеся в группе Гости, не могут оставлять комментарии к данной публикации.