вход на сайт

Имя пользователя :
Пароль :

Восстановление пароля Регистрация
(2001) Лучшие звуки природы (Звуки природы) [FLAC (image+.cue), lossless]
Рейтинг:
(голосов: 1)



[img]{THEME}/images/logopost.png[/img]



Альбом: Лучшие звуки природы
Страна: Россия
Тип альбома: Compilation
Год выпуска: 2001
Жанр: Звуки природы
Формат: FLAC (image+.сue)
Битрейт: lossless
Продолжительность: 01:18:51


01 ... Морской прибой - Морской прибой ... 07:14
02 ... Голоса леса - Голоса леса ... 04:03
03 ... Прилив - Прилив ... 06:15
04 ... Пение птиц - Пение птиц ... 07:44
05 ... Веселые дельфины - Веселые дельфины ... 06:39
06 ... Гроза - Гроза ... 08:39
07 ... Вечер в лесу - Вечер в лесу ... 02:50
08 ... Водопад - Водопад ... 03:54
09 ... Лесной ручей - Лесной ручей ... 02:44
10 ... Морские птицы - Морские птицы ... 02:56
11 ... Тропический ливень - Тропический ливень ... 06:08
12 ... Пение китов - Пение китов ... 03:31
13 ... Дует ветер - Дует ветер ... 04:28
14 ... Плач в ночи - Плач в ночи ... 06:21
15 ... Океанское побережье - Океанское побережье ... 05:18

EAC log ▼TextExact Audio Copy V0.99 prebeta 4 from 23. January 2008
Отчёт EAC об извлечении, выполненном 28. ноября 2010, 16:01
Various / Лучшие звуки природы
Дисковод: YAMAHA CRW-F1E Adapter: 1 ID: 1
Режим чтения : Достоверность
Использование точного потока : Да
Отключение кэша аудио : Да
Использование указателей C2 : Нет
Коррекция смещения при чтении : 733
Способность читать области Lead-in и Lead-out : Нет
Заполнение пропущенных сэмплов тишиной : Да
Удаление блоков с тишиной в начале и конце : Нет
При вычислениях CRC использовались нулевые сэмплы : Да
Интерфейс : Встроенный Win32-интерфейс для Win NT/2000
Выходной формат : Пользовательский кодировщик
Выбранный битрейт : 768 kBit/s
Качество : Высокий
Добавление ID3-тэга : Нет
Утилита сжатия : C:Program FilesExact Audio CopyFLACFLAC.EXE
Дополнительные параметры : -6 -V -T "ARTIST=%a" -T "TITLE=%t" -T "ALBUM=%g" -T "DATE=%y" -T "TRACKNUMBER=%n" -T "GENRE=%m" -T "COMMENT=%e" %s -o %d
TOC извлечённого CD
Трек | Старт | Длительность | Начальный сектор | Конечный сектор
---------------------------------------------------------------------
1 | 0:00.00 | 7:14.06 | 0 | 32555
2 | 7:14.06 | 4:03.22 | 32556 | 50802
3 | 11:17.28 | 6:15.31 | 50803 | 78958
4 | 17:32.59 | 7:46.66 | 78959 | 113974
5 | 25:19.50 | 6:39.40 | 113975 | 143939
6 | 31:59.15 | 8:39.64 | 143940 | 182928
7 | 40:39.04 | 2:50.21 | 182929 | 195699
8 | 43:29.25 | 3:54.10 | 195700 | 213259
 
b01b40711f3c1c375efa67d9ce61444967ba26cd(2001) Лучшие звуки природы (Звуки природы) [FLAC (image+.cue), lossless] (2001) Лучшие звуки природы (Звуки природы) [FLAC (image+.cue), lossless] " />

Аплоадер: Админ, дата: 28-11-2011, 16:15, торрент скачан: 359 раз

Понравилась раздача? Посмотрите эти:
  • (1993) Coverdale & Page / Coverdale & Page (EMI Holland)(Hard Rock) [FLAC ( ...
  • (2000) a-ha / Minor Earth | Major Sky (Alternative Rock, Synth-pop ) [FLAC ...
  • (2013) Loc-Dog & Tony VA / Все знают всё (Rap, Hip-Hop) [FLAC (Tracks+.Cue ...
  • (2013) Pinnick Gales Pridgen / Pinnick Gales Pridgen (Hard Rock, Heavy Blue ...
  • (2012) Рем Дигга / Черника (Rap) [FLAC (tracks+.cue), lossless]
  • (2010) Schiller / Breathless (Electronic) [FLAC (image+.cue), lossless]
  • (2010) БИ-2 / О чём говорят мужчины (Pop-Rock) [FLAC (image + .cue), lossle ...
  • (2011) ГРОТ / О Пути По Встречной (Rap) [FLAC (tracks+.cue), lossless]
  • (1997) Jazz Cafe / Simple Pleasures (Jazz, instrumental) [FLAC (image+.сue ...
  • (Дискография, 2006-2011) Светлана Копылова (Православная песня) [FLAC (imag ...
  • (2012) The Rasmus / The Rasmus (Alternative Rock/Melodic Rock) [FLAC (track ...
  • (1993) Mireille Mathieu / Chante Piaf (Pop) [FLAC (tracks+.cue), lossless]
  • (2012) The Blues Overdrive / The Blues Overdrive (Blues-Rock) [FLAC (image+ ...
  • (2012) Триада / Мои глаза открыты (Rap) [FLAC (tracks+.cue), lossless]
  • (2012) KREC / Молча проще (Rap) [FLAC (tracks+.cue), lossless]
  • (1986) Dark Angel / Darkness Descends (Thrash Metal) [FLAC (image+.cue), lo ...
  • (2011) Ассаи / ОМ (Rap) [FLAC (tracks+.cue), lossless]
  • (2012) Strange Contact / Retro (Synthpop) [FLAC (image+.сue), lossless]
  • (2012) Ария / Live In Studio (Heavy Metal) [FLAC (image+.сue), lossless]
  • (2008) Nirvana / The Best Of (Grunge, Alternative) [FLAC (image+.сue), loss ...
  • Информация
    Посетители, находящиеся в группе Гости, не могут оставлять комментарии к данной публикации.