вход на сайт

Имя пользователя :
Пароль :

Восстановление пароля Регистрация
(2011) Mistabishi / Trip (Drum & Bass, Breakbeat) [FLAC (tracks+.cue), lossless]
Рейтинг:
(голосов: 1)



[img]{THEME}/images/logopost.png[/img]



MISTABISHI
Исполнитель: Mistabishi
Альбом: Trip
Тип альбома: Студийный
Год выпуска: 2011
Жанр: Drum & Bass, Breakbeat
Страна (Издатель, Каталожный номер): UK (NOH Music, NOHCD001)
Аудиокодек: FLAC (*.flac)
Тип рипа: tracks+.cue
Битрейт: lossless
Продолжительность: 00:49:36

Tреклист:
01. Mistabishi - Industry Whore (04:30)
02. Mistabishi - Traveler (04:02)
03. Mistabishi - Wannabe (03:07)
04. Mistabishi - Goa Whey (03:18)
05. Mistabishi - 4Ho-Met (02:56)
06. Mistabishi - Amen Mother (02:34)
07. Mistabishi - Rwnd The Revolution (03:56)
08. Mistabishi - Arts Wars (02:01)
09. Mistabishi - Miow (02:12)
10. Mistabishi - Skyping Detroit (02:12)
11. Mistabishi - Dorothy (02:23)
12. Mistabishi - Party Politics (02:11)
13. Mistabishi - Secret Location (02:59)
14. Mistabishi - Scene And Not Herd (02:35)
15. Mistabishi - Prisoners Of Mother Earth (02:58)
16. Mistabishi - Druggers End (05:35)

Лог создания рипа ▼TextExact Audio Copy V1.0 beta 3 from 29. August 2011
EAC extraction logfile from 13. December 2011, 10:47
Mistabishi / Trip
Used drive : Optiarc DVD RW AD-7241S Adapter: 3 ID: 0
Read mode : Secure
Utilize accurate stream : Yes
Defeat audio cache : Yes
Make use of C2 pointers : No
Read offset correction : 48
Overread into Lead-In and Lead-Out : No
Fill up missing offset samples with silence : Yes
Delete leading and trailing silent blocks : No
Null samples used in CRC calculations : Yes
Used interface : Native Win32 interface for Win NT & 2000
Gap handling : Appended to previous track
Used output format : User Defined Encoder
Selected bitrate : 1024 kBit/s
Quality : High
Add ID3 tag : No
Command line compressor : C:Program FilesFLACflac.exe
Additional command line options : -8 -V -T "ARTIST=%artist%" -T "TITLE=%title%" -T "ALBUM=%albumtitle%" -T "DATE=%year%" -T "TRACKNUMBER=%tracknr%" -T "GENRE=%genre%" -T "PERFORMER=%albuminterpret%" -T "COMPOSER=%composer%" %haslyrics%--tag-from-file=LYRICS="%lyricsfile%"%haslyrics% -T "ALBUMARTIST=%albumartist%" -T "ALBUM ARTIST=%albumartist%" -T "DISCNUMBER=%cdnumber%" -T "TOTALDISCS=%totalcds%" -T "TOTALTRACKS=%numtracks%" -T "COMMENT=EAC V1.0 beta 2, Secure Mode, Test & Copy, AccurateRip, FLAC -8" %source% -o %dest%
TOC of the extracted CD
Track | Start | Length | Start sector | End sector
---------------------------------------------------------
1 | 0:00.00 | 4:30.00 | 0 | 20249
2 | 4:30.00 | 4:02.52 | 20250 | 38451
3 | 8:32.52 | 3:07.43 | 38452 | 52519
4 | 11:40.20 | 3:18.42 | 52520 | 67411
5 | 14:58.62 | 2:56.34 | 67412 | 80645
6 |
f50ebd7790a051d8b4455e7b3d9650a0e56c258d(2011) Mistabishi / Trip (Drum & Bass, Breakbeat) [FLAC (tracks+.cue), lossless] (2011) Mistabishi / Trip (Drum & Bass, Breakbeat) [FLAC (tracks+.cue), lossless] " />

Аплоадер: Админ, дата: 16-12-2012, 16:30, торрент скачан: 359 раз

Понравилась раздача? Посмотрите эти:
  • (2013) Buddy Guy / Rhythm & Blues (2CD) (Blues) [FLAC (image+.cue), Lossles ...
  • (2013) Paul McCartney / New (Deluxe Edition) (Rock) [FLAC (image,+.cue), lo ...
  • (2013) Prodigy & The Alchemist / Albert Einstein (Underground Hip-Hop) [FLA ...
  • (2013) Hans Zimmer / Человек из стали / Man Of Steel [Deluxe Edition] (2 CD ...
  • (2012) Lazlo / Lazlo (Electro Swing, Nu Jazz, Electronic) [FLAC (tracks+.cu ...
  • (2012) Mistabishi / Skum (Drum & Bass) [MP3 (tracks), 320/CBR]
  • (2011) Disturbed / The Lost Children (Alternative Metal) [FLAC (tracks+.cue ...
  • (2011) Korn (KoЯn) / The Path Of Totality (Special Edition) (Nu Metal | Dub ...
  • (2012) Katie Melua / Secret Symphony (Jazz Pop, Vocal Jazz) [FLAC (tracks+. ...
  • (2012) Mark Lanegan Band / Blues Funeral (Alternative Rock/Blues Rock) [FLA ...
  • (2012) Paul Van Dyk / Evolution (Progressive House, Trance) [FLAC (tracks+. ...
  • (2012) Marconi Union / Different Colours (Post Rock, Downtempo, Ambient) [F ...
  • (2008, Сборник) VA / Relax Piano - Yesterday - Trai Tim Mua Thu - Vol.7 (Ne ...
  • (2012) Tomandandy / Resident Evil: Retribution (Score, Soundtrack)[FLAC (tr ...
  • (2012) Sally Night / Love For Sale (Vocal Jazz) [FLAC (tracks+.cue), lossle ...
  • (1996) The Rasmus / Peep (Finnish Version) (Alternative Rock) [FLAC (tracks ...
  • (2012) Usher / Looking 4 Myself (Deluxe Version) (R&B, Soul) [FLAC (tracks+ ...
  • (2012) Buckethead / Electric Sea (Experimental/Acoustic/Ambient/Rock) [FLAC ...
  • (2012) Les Friction / Les Friction (Alt. Rock/Neo-Classical/Orchestral) [FL ...
  • (2011) SeeS / The enD (Progressive/Math Metal) [FLAC (tracks+.cue), lossles ...
  • (2012) Bleeding Through / The Great Fire (Symphonic Metalcore/Hardcore) [FL ...
  • (2012) Our Lady Peace / Curve (Alternative/Rock) [FLAC (tracks+.cue), lossl ...
  • (2011) Terra Tenebrosa / The Tunnels (Atmospheric Sludge Post-Metal/Psyched ...
  • (2012) Nine Lashes / World We View (Alt.Rock/Alt.Metal/Christian) [FLAC (tr ...
  • (2012) For Today / Immortal (Metalcore, Hardcore, Christian) [FLAC (tracks+ ...
  • Информация
    Посетители, находящиеся в группе Гости, не могут оставлять комментарии к данной публикации.