вход на сайт

Имя пользователя :
Пароль :

Восстановление пароля Регистрация
(1999) Muffler / Muffler (Drum & Bass) [FLAC (tracks+.cue), lossless]
Рейтинг:
(голосов: 1)



[img]{THEME}/images/logopost.png[/img]



Исполнитель: Muffler
Альбом: Muffler
Страна: Finland
Издатель (лейбл): TRSI Recordz
Номер по каталогу: TRSICD007
Тип альбома: Студийный
Год выпуска: 1999
Жанр: Drum & Bass
Формат: FLAC (tracks+.cue)
Битрейт: lossless
Продолжительность: 01:06:40

Tреклист:
01 - Step To Dark (Part 1) (5:03)
02 - Contrafunk (3:53)
03 - Twinkle (7:59)
04 - Found And Lost (5:11)
05 - Jolla (5:49)
06 - Step To Dark (Part 2) (4:45)
07 - No Tank (6:42)
08 - One (4:59)
09 - Ignition (5:48)
10 - Float (11:16)
11 - Wollop Da Trollop (5:15)

Лог создания рипа ▼TextExact Audio Copy V0.99 prebeta 5 from 4. May 2009

EAC extraction logfile from 10. December 2010, 15:31

Muffler / Muffler

Used drive : HL-DT-STDVDRAM GSA-H42N Adapter: 2 ID: 0

Read mode : Secure
Utilize accurate stream : Yes
Defeat audio cache : Yes
Make use of C2 pointers : No

Read offset correction : 667
Overread into Lead-In and Lead-Out : No
Fill up missing offset samples with silence : Yes
Delete leading and trailing silent blocks : No
Null samples used in CRC calculations : Yes
Used interface : Native Win32 interface for Win NT & 2000
Gap handling : Appended to previous track

Used output format : User Defined Encoder
Selected bitrate : 128 kBit/s
Quality : High
Add ID3 tag : No
Command line compressor : C:Program FilesExact Audio CopyFlacflac.exe
Additional command line options : -V -8 -T "artist=%a" -T "title=%t" -T "album=%g" -T "date=%y" -T "tracknumber=%n" -T "genre=%m" %s


TOC of the extracted CD

Track | Start | Length | Start sector | End sector
---------------------------------------------------------
1 | 0:00.00 | 5:03.64 | 0 | 22788
2 | 5:03.64 | 3:53.50 | 22789 | 40313
3 | 8:57.39 | 7:59.65 | 40314 | 76303
4 | 16:57.29 | 5:11.15 | 76304 | 99643
5 | 22:08.44 | 5:49.52 | 99644 | 125870
6 | 27:58.21 | 4:45.47 | 125871 | 147292
7 | 32:43.68 | 6:42.18 | 147293 | 177460
8 | 39:26.11 | 4:59.05 | 177461 | 199890
9 | 44:25.16 | 5:48.64 | 199891 | 226054
10 | 50:14.05 | 11:16.67 | 226055 | 276821
11 | 61:30.72 | 5:15.53
d6680e21288bbb20b083ea456271f24916026a6a(1999) Muffler / Muffler (Drum & Bass) [FLAC (tracks+.cue), lossless] (1999) Muffler / Muffler (Drum & Bass) [FLAC (tracks+.cue), lossless] " />

Аплоадер: Админ, дата: 8-03-2012, 01:04, торрент скачан: 359 раз

Понравилась раздача? Посмотрите эти:
  • (2010) Вячеслав Бутусов и Ю-Питер / Цветы и Тернии (Rock) [FLAC (tracks + . ...
  • (2010) Zaz / Zaz (Nu jazz, Chanson, Soul) [FLAC (tracks+.cue), lossless]
  • (2011) Adele / 21 (Jazz, Lounge, Easy Listening) [FLAC (tracks + .cue), los ...
  • (2011) Виктория - победительница / Victorious (OST) [FLAC (tracks+.cue), lo ...
  • (2010) Ravenna / Debrief (Alt. Rock / Christian Rock / Indie) [FLAC (tracks ...
  • (2011) B.B. King / Icon (Blues) [FLAC (tracks+.cue), lossless]
  • (2012) Tomandandy / Resident Evil: Retribution (Score, Soundtrack)[FLAC (tr ...
  • (2011) Mistabishi / Trip (Drum & Bass, Breakbeat) [FLAC (tracks+.cue), loss ...
  • (2012) Netsky / 2 (Drum & Bass, Dubstep) [FLAC (tracks+.cue), lossless]
  • (2011) Ляпис Трубецкой / Веселые картинки (Rock) [FLAC (tracks+.cue), lossl ...
  • (2011) Revocation / Chaos of Forms (Death Metal/Thrash) [FLAC (tracks+.cue) ...
  • (2011) Дельфин / Существо (Alternative|Experimental) [FLAC (tracks+.cue), l ...
  • (2011) Ленинград / Хна (Rock) [FLAC (tracks+.cue), lossless]
  • (2012) Les Friction / Les Friction (Alt. Rock/Neo-Classical/Orchestral) [FL ...
  • (2011) SeeS / The enD (Progressive/Math Metal) [FLAC (tracks+.cue), lossles ...
  • (2011) Downhere / On The Altar Of Love (Alternative Rock/Christian Rock) [F ...
  • (2012) Bleeding Through / The Great Fire (Symphonic Metalcore/Hardcore) [FL ...
  • (2011) The Soulless / Isolated (Melodic Death Metal/Metalcore) [FLAC (track ...
  • (2011) Phinehas / Thegodmachine (Metalcore) [FLAC (tracks+.cue), lossless]
  • (2011) Skindred / Union Black (Alternative Metal, Ragga-Metal) [FLAC (track ...
  • Информация
    Посетители, находящиеся в группе Гости, не могут оставлять комментарии к данной публикации.