вход на сайт

Имя пользователя :
Пароль :

Восстановление пароля Регистрация
(2012) High Contrast / The Agony & The Ecstasy (Drum and Bass) [FLAC (tracks+.cue), lossless]
Рейтинг:
(голосов: 1)



[img]{THEME}/images/logopost.png[/img]



Исполнитель: High Contrast
Альбом: The Agony & The Ecstasy
Тип альбома: Студийный
Издатель (лейбл): Hospital Records
Номер по каталогу: NHS204L
Год выпуска: 2012
Жанр: Drum and Bass
Формат: FLAC (tracks+.cue)
Битрейт: lossless
Продолжительность: 01:07:26

Tреклист:
1. The Agony and The Ecstasy (feat Selah Corbin) (06:14)
2. The Road Goes On Forever (05:42)
3. Wish You Were Here (feat Selah Corbin) (05:49)
4. Almost Human (feat Clare Maguire) (05:43)
5. The Only Way There (feat Selah Corbin) (05:07)
6. The First Note Is Silent (feat Tiesto and Underworld) (05:47)
7. Emotional Vampire (06:00)
8. 238 Days (feat Underworld) (05:12)
9. Not Waving, But Drowning (feat Lung and Jessy Allen) (04:42)
10. Father, Cant You See Im Burning? (06:28)
11. The Stand (05:30)
12. All There Is (feat. Liane Carrol) (05:16)

Лог ЕАС ▼TextExact Audio Copy V1.0 beta 1 from 15. November 2010

EAC extraction logfile from 25. February 2012, 10:22

High Contrast / The Agony & The Ecstasy

Used drive : TSSTcorpDVD-ROM TS-H353B Adapter: 0 ID: 1

Read mode : Secure
Utilize accurate stream : Yes
Defeat audio cache : Yes
Make use of C2 pointers : No

Read offset correction : 6
Overread into Lead-In and Lead-Out : No
Fill up missing offset samples with silence : Yes
Delete leading and trailing silent blocks : No
Null samples used in CRC calculations : Yes
Used interface : Native Win32 interface for Win NT & 2000
Gap handling : Appended to previous track

Used output format : User Defined Encoder
Selected bitrate : 768 kBit/s
Quality : High
Add ID3 tag : No
Command line compressor : C:Program FilesExact Audio CopyFlacflac.exe
Additional command line options : -V -8 -T "artist=%a" -T "title=%t" -T "album=%g" -T "date=%y" -T "tracknumber=%n" -T "genre=%m" %s

TOC of the extracted CD

Track | Start | Length | Start sector | End sector
---------------------------------------------------------
1 | 0:00.00 | 6:14.33 | 0 | 28082
2 | 6:14.33 | 5:41.38 | 28083 | 53695
3 | 11:55.71 | 5:49.03 | 53696 | 79873
4 | 17:44.74 | 5:43.26 | 79874 | 105624
5 | 23:28.25 | 5:07.31 | 105625 | 128680
6 | 28:35.56 | 5:46.74 | 128681 | 154704
7 | 34:22.55 | 5:59.56 | 154705 | 181685
8 | 40:22.36 | 5:12.16 | 181686 | 205101
9 | 45:34.52 | 4:41.42 | 205102 | 226218
10 | 50:16.19 | 6:28.23 | 226219 | 255341
11 | 56:44.42 | 5:30.12 | 255342 | 280103
12 | 62:14.54 | 5:16.22 | 280104 | 303825

Track 1

Filename C:EAC RipsHigh Contrast - The Agony & The Ecstasy1 - The Agony & The Ecstasy (ft. Selah Corbin).wav

Pre-gap length 0:00:02.00

Peak level 98.2 %
Extraction speed 3.9 X
Track quality 100.0 %
Test CRC 3B35ACA9
Copy CRC 3B35ACA9
Track not present in AccurateRip database
Copy OK

Track 2

Filename C:EAC RipsHigh Contrast - The Agony & The Ecstasy2 - The Road Goes On Forever.wav

Peak level 98.2 %
Extraction speed 4.6 X
Track quality 100.0 %
Test CRC 57BF73BD
Copy CRC 57BF73BD
Track not present in AccurateRip database
Copy OK

Track 3

Filename C:EAC RipsHigh Contrast - The Agony & The Ecstasy3 - Wish You Were Here (ft. Selah Corbin).wav

Peak level 98.2 %
Extraction speed 5.1 X
Track quality 100.0 %
Test CRC 145F0321
Copy CRC 145F0321
Track not present in AccurateRip database
Copy OK

Track 4

Filename C:EAC RipsHigh Contrast - The Agony & The Ecstasy4 - Almost Human (ft. Clare Maguire).wav

Peak level 97.7 %
Extraction speed 4.9 X
Track quality 99.9 %
Test CRC EBECCC60
Copy CRC EBECCC60
Track not present in AccurateRip database
Copy OK

Track 5

Filename C:EAC RipsHigh Contrast - The Agony & The Ecstasy5 - The Only Way There (ft. Selah Corbin).wav

Pre-gap length 0:00:02.00

Peak level 98.2 %
Extraction speed 5.8 X
Track quality 100.0 %
Test CRC 200B2FB4
Copy CRC 200B2FB4
Track not present in AccurateRip database
Cop
7a874d80421729a0394865e42f54090967fee10a(2012) High Contrast / The Agony & The Ecstasy (Drum and Bass) [FLAC (tracks+.cue), lossless] (2012) High Contrast / The Agony & The Ecstasy (Drum and Bass) [FLAC (tracks+.cue), lossless] " />

Аплоадер: Админ, дата: 26-02-2012, 11:46, торрент скачан: 359 раз

Понравилась раздача? Посмотрите эти:
  • (2013) Girls Generation (SNSD) - Galaxy Supernova / Galaxy Supernova (KPop) ...
  • (2013) Linkin Park & Steve Aoki / A Light That Never Comes (Electronic Rock ...
  • (2009) The Black Eyed Peas / The E.N.D. (The Energy Never Dies) (Target Del ...
  • (2010) Zaz / Zaz (Nu jazz, Chanson, Soul) [FLAC (tracks+.cue), lossless]
  • (2011) Depeche Mode / Personal Jesus 2011 Club Promo (Electronic, Synthpop) ...
  • (2011) Orjan Nilsen / In My Opinion (Trance) [FLAC (tracks+.cue), lossless] ...
  • (2002) PPK (ППК) / ReLoad. Russian Trance (Trance) [FLAC (tracks+cue), loss ...
  • (2010, сборник) VA / CDeelder Box (Swing) [FLAC (tracks+.cue), lossless]
  • (2010) Ravenna / Debrief (Alt. Rock / Christian Rock / Indie) [FLAC (tracks ...
  • (2011) B.B. King / Icon (Blues) [FLAC (tracks+.cue), lossless]
  • (2012) High Contrast / The Agony & The Ecstasy (Drum & Bass) [mp3, 320 kbps ...
  • (2012) Usher / Looking 4 Myself (Deluxe Version) (R&B, Soul) [FLAC (tracks+ ...
  • (1999) Muffler / Muffler (Drum & Bass) [FLAC (tracks+.cue), lossless]
  • (2011) Mistabishi / Trip (Drum & Bass, Breakbeat) [FLAC (tracks+.cue), loss ...
  • (2012) Netsky / 2 (Drum & Bass, Dubstep) [FLAC (tracks+.cue), lossless]
  • (2006) The Rasmus / Shot (Single) (Alternative Rock) [FLAC (tracks+.cue), l ...
  • (2012) Madonna / Superstar (Pop) [FLAC (image+.cue), lossless]
  • (2011) Linkin Park / Iridescent (Alternative Rock) [FLAC(image+.cue), lossl ...
  • (2011) Stargazery / Eye On The Sky (Heavy Metal) [FLAC (image+.cue), lossle ...
  • (2011) Rammstein / Mein Land (Neue Deutsche Harte, Industrial, Tanz-Metal) ...
  • (2011) This Will Destroy You / Tunnel Blanket (Post Rock) [FLAC (tracks+.cu ...
  • (2011) SeeS / The enD (Progressive/Math Metal) [FLAC (tracks+.cue), lossles ...
  • (2011) Florence & The Machine / Ceremonials (Deluxe Edition) (Indie/Alterna ...
  • (2012) KoRn feat. Skrillex / Chaos Lives In Everything (UK Promo) (Nu-metal ...
  • (2011) Ink Stained Promises / Relations. (Metalcore, Hardcore) [FLAC (track ...
  • Информация
    Посетители, находящиеся в группе Гости, не могут оставлять комментарии к данной публикации.