вход на сайт

Имя пользователя :
Пароль :

Восстановление пароля Регистрация
(2011) Nero / Welcome Reality (Dubstep / House / Drum & Bass) [FLAC (tracks+.cue), lossless]
Рейтинг:
(голосов: 1)



[img]{THEME}/images/logopost.png[/img]



Исполнитель: Nero
Альбом: Welcome Reality
Страна: UK
Тип альбома: Студийный
Год выпуска: 2011
Жанр: Dubstep, House, Drum & Bass
Формат: FLAC (tracks+.cue)
Битрейт: lossless
Продолжительность: 01:01:12

Tреклист:
01 - 2808 [01:52]
02 - Doomsday [04:11]
03 - My Eyes [04:49]
04 - Guilt [04:44]
05 - Fugue State [03:34]
06 - Me and You [04:07]
07 - Innocence [05:08]
08 - In the Way [03:56]
09 - Scorpions [05:55]
10 - Crush On You [04:10]
11 - Must Be the Feeling [04:02]
12 - Reaching Out [04:44]
13 - Promises [04:17]
14 - Departure [05:33]

"Отчет EAC" ▼
Exact Audio Copy V1.0 beta 2 from 29. April 2011

EAC extraction logfile from 15. August 2011, 15:47

Nero / Welcome Reality

Used drive: Optiarc DVD RW AD-7240S Adapter: 1ID: 0

Read mode : Secure
Utilize accurate stream : Yes
Defeat audio cache: Yes
Make use of C2 pointers : No

Read offset correction: 48
Overread into Lead-In and Lead-Out: No
Fill up missing offset samples with silence : Yes
Delete leading and trailing silent blocks : No
Null samples used in CRC calculations : Yes
Used interface: Native Win32 interface for Win NT & 2000
Gap handling: Appended to previous track

Used output format: User Defined Encoder
Selected bitrate: 1024 kBit/s
Quality : High
Add ID3 tag : No
Command line compressor : C:Program Files (x86)Exact Audio CopyFlacflac.exe
Additional command line options : -8 -V -T "ARTIST=%artist%" -T "TITLE=%title%" -T "ALBUM=%albumtitle%" -T "DATE=%year%" -T "TRACKNUMBER=%tracknr%" -T "GENRE=%genre%" -T "PERFORMER=%albuminterpret%" -T "COMPOSER=%composer%" %haslyrics%--tag-from-file=LYRICS


TOC of the extracted CD

Track | Start|Length| Start sector | End sector
---------------------------------------------------------
1|0:00.00 |1:53.50 | 0| 8524
2|1:53.50 |4:11.49 |8525|27398
3|6:05.24 |4:49.50 | 27399|49123
4| 10:54.74 |4:44.09 | 49124|
15707f37610a6f7005948744f8c0b96fa2da6941(2011) Nero / Welcome Reality (Dubstep / House / Drum & Bass) [FLAC (tracks+.cue), lossless] (2011) Nero / Welcome Reality (Dubstep / House / Drum & Bass) [FLAC (tracks+.cue), lossless] " />

Аплоадер: Админ, дата: 11-10-2011, 18:59, торрент скачан: 359 раз

Понравилась раздача? Посмотрите эти:
  • (2010)Scorpions/Sting In The Tail [FLAC (tracks+cue), lossless]
  • (2010) Deftones / Diamond Eyes (Nu metal / Alternative) [FLAC, (tracks+ cu ...
  • (2008) Pink / Funhouse (Pop) [FLAC (tracks) lossless]
  • (2011) Red Hot Chili Peppers / Im With You (Alternative Rock/Funk) [FLAC (t ...
  • (2011) Coldplay / Mylo Xyloto (Alternative Rock) [FLAC (tracks+.cue), lossl ...
  • (2012) Paul Van Dyk / Evolution (Progressive House, Trance) [FLAC (tracks+. ...
  • (2010) Noisia / Split The Atom (Drum & Bass, Electro) [FLAC (tracks)]
  • (2011) Mobthrow / Mobthrow (Drum & Bass / Dubstep / IDM) [FLAC (tracks+.cue ...
  • (2009) Sub Focus/ Sub Focus(Drum & Bass) [FLAC (tracks+.cue), lossless]
  • (2011) Nu:Tone / Words and Pictures(Drum & Bass / Liquid Funk) [FLAC (track ...
  • (1999) Muffler / Muffler (Drum & Bass) [FLAC (tracks+.cue), lossless]
  • (2012) DJ Fresh / Nextlevelism (2CD) (Deluxe Version) (Drum & Bass, Dubstep ...
  • (2011) Mistabishi / Trip (Drum & Bass, Breakbeat) [FLAC (tracks+.cue), loss ...
  • (2012) Netsky / 2 (Drum & Bass, Dubstep) [FLAC (tracks+.cue), lossless]
  • (2010) Morcheeba / Blood Like Lemonade ( Electronic, Downtempo, Pop, Trip-h ...
  • (2011) Evanescence / Evanescence (Alternative Rock) [FLAC (tracks+.cue), lo ...
  • (2011) Scorpions / Comeblack (Hard Rock) [FLAC (tracks+.cue)lossless]
  • (2011) Revocation / Chaos of Forms (Death Metal/Thrash) [FLAC (tracks+.cue) ...
  • (2011) SeeS / The enD (Progressive/Math Metal) [FLAC (tracks+.cue), lossles ...
  • (2012) Our Lady Peace / Curve (Alternative/Rock) [FLAC (tracks+.cue), lossl ...
  • (2012) Thousand Foot Krutch / The End Is Where We Begin (Christian/Alt.Rock ...
  • (2012) KoRn feat. Skrillex / Chaos Lives In Everything (UK Promo) (Nu-metal ...
  • (2012) Nine Lashes / World We View (Alt.Rock/Alt.Metal/Christian) [FLAC (tr ...
  • (2011) Phinehas / Thegodmachine (Metalcore) [FLAC (tracks+.cue), lossless]
  • (2011) Ink Stained Promises / Relations. (Metalcore, Hardcore) [FLAC (track ...
  • Информация
    Посетители, находящиеся в группе Гости, не могут оставлять комментарии к данной публикации.