вход на сайт

Имя пользователя :
Пароль :

Восстановление пароля Регистрация
(2011) VA - Пиратская Станция Teatro (Drum & Bass) [FLAC (image+.cue) lossless]
Рейтинг:
(голосов: 1)



[img]{THEME}/images/logopost.png[/img]



VA - Пиратская Станция Teatro

Исполнитель: VA
Альбом: Пиратская Станция Teatro
Год выпуска: 2011
Жанр: Drum & Bass
Формат: FLAC (image+.cue)
Битрейт: lossless
Log-файл: Присуствует
Продолжительность: 01:03:42

Tреклист:
[04:32] 01. Stim Axel - Я буду помнить
[04:24] 02. 3XL Pro - Слияние (DJ 007 Remix)
[04:22] 03. Триада - Нежный омут (ZigZag Remix)
[04:01] 04. Blackman - Arhythmia
[04:37] 05. Implex - Neon
[04:23] 06. Purple Unit - New Dimensions
[04:21] 07. Hectix - Liberty
[04:00] 08. ZigZag - Sharp Reef (Implex VIP)
[05:11] 09. Sequent Industry ft. JD Jupiter - With You
[03:14] 10. PH & Soundwall - Invasion
[04:46] 11. Zap - Big Daddy
[03:59] 12. Ozma - Distress Call
[03:15] 13. Prestige & Nik Itch - Diffusion
[04:48] 14. Redco - Bloodhound
[03:47] 15. TRansgen and Avionics Project - Мир раскололся

Отчет EAC:
▼Exact Audio Copy V0.99 prebeta 5 from 4. May 2009
EAC extraction logfile from 22. February 2011, 11:19
V.A. / Pirate Station Teatro
Used drive: PIONEER DVD-RWDVR-212D Adapter: 3ID: 0
Read mode : Secure
Utilize accurate stream : Yes
Defeat audio cache: Yes
Make use of C2 pointers : No
Read offset correction: 48
Overread into Lead-In and Lead-Out: No
Fill up missing offset samples with silence : Yes
Delete leading and trailing silent blocks : No
Null samples used in CRC calculations : Yes
Used interface: Native Win32 interface for Win NT & 2000
Used output format: User Defined Encoder
Selected bitrate: 128 kBit/s
Quality : High
Add ID3 tag : No
Command line compressor : C:Program FilesExact Audio CopyFlacflac.exe
Additional command line options : -8 -V -T "ARTIST=%a" -T "TITLE=%t" -T "ALBUM=%g" -T "DATE=%y" -T "TRACKNUMBER=%n" -T "GENRE=%m" -T "COMMENT=EAC FLAC -8" %s
TOC of the extracted CD
Track | Start|Length| Start sector | End sector
---------------------------------------------------------
1|0:00.00 |4:32.00 | 0|20399
2|4:32.00 |4:24.13 | 20400|40212
3|8:56.13 |4:22.01 | 40213|59863
4| 13:18.14 |4:01.60 | 59864|77998
5| 17:19.74 |4:37.13 | 77999|98786
fd2452528078ee2cb2bf38ae6b5aa6b1dd9e1e18(2011) VA - Пиратская Станция Teatro (Drum & Bass) [FLAC (image+.cue) lossless] (2011) VA - Пиратская Станция Teatro (Drum & Bass) [FLAC (image+.cue) lossless] " />

Аплоадер: Админ, дата: 23-02-2011, 14:24, торрент скачан: 359 раз

Понравилась раздача? Посмотрите эти:
  • (1989) Kaoma / Lambada (lambada / latin / ethnic) [FLAC (image+.cue), lossl ...
  • (2008) Pink / Funhouse (Pop) [FLAC (tracks) lossless]
  • (2010) Ассаи / Лифт (Rap) [FLAC(image+.cue), lossless]
  • (2010) A-HA / 25 (2 CD) (Pop) [FLAC (image + .cue)]
  • (2011) The Prodigy / Worlds On Fire (Big Beat, Rave) [FLAC (image+.cue), lo ...
  • (2011, сборник) VA / Пиратская Станция TEATRO (Drum & Bass, Neurophunk, Jum ...
  • (2012, сборник) VA / Пиратская Станция Apocalypse (Drum & Bass) [MP3, 320/C ...
  • (2010) Ne-Yo / Libra Scale (Japanese Edition) (RnB) [FLAC (tracks+.cue) los ...
  • (2010) Rihanna / Loud (R&B) [FLAC (tracks+.cue), lossless]
  • (2010) Noisia / Split The Atom (Drum & Bass, Electro) [FLAC (tracks)]
  • (2011) Mobthrow / Mobthrow (Drum & Bass / Dubstep / IDM) [FLAC (tracks+.cue ...
  • (2009) Sub Focus/ Sub Focus(Drum & Bass) [FLAC (tracks+.cue), lossless]
  • (2011) Nu:Tone / Words and Pictures(Drum & Bass / Liquid Funk) [FLAC (track ...
  • (2011) Nero / Welcome Reality (Dubstep / House / Drum & Bass) [FLAC (tracks ...
  • (1999) Muffler / Muffler (Drum & Bass) [FLAC (tracks+.cue), lossless]
  • (2012) Netsky / 2 (Drum & Bass, Dubstep) [FLAC (tracks+.cue), lossless]
  • (1976) The Eagles / Hotel California [Japan Remastered] (Country Rock) [FLA ...
  • (2011) Linkin Park / Iridescent (Alternative Rock) [FLAC(image+.cue), lossl ...
  • (Full Studio Discography, 2011) George Michael (Japan) (Pop) [FLAC (image+. ...
  • (2011) Electric Universe / Higher Modes (Psytrance, Full On) [FLAC (tracks+ ...
  • Информация
    Посетители, находящиеся в группе Гости, не могут оставлять комментарии к данной публикации.