вход на сайт

Имя пользователя :
Пароль :

Восстановление пароля Регистрация
(2010) Noisia / Split The Atom (Drum & Bass, Electro) [FLAC (tracks)]
Рейтинг:
(голосов: 1)



[img]{THEME}/images/logopost.png[/img]



Исполнитель: Noisia
Альбом: Split The Atom
Тип альбома: Студийный
Год выпуска: 2010
Жанр: Breaks, Drum & Bass, Dubstep, Electro
Формат: FLAC (tracks)
Битрейт: lossless
Продолжительность: 00:56:52

Tреклист:
1. Machine Gun (4:05)
2. My World (feat Giovanca) (4:53)
3. Shitbox (0:58)
4. Split The Atom (5:42)
5. Thursday (3:45)
6. Leakage (1:33)
7. Hand Gestures (feat Joe Seven) (3:11)
8. Headknot (1:32)
9. Red Heat (3:28)
10. Shellshock (feat Foreign Beggars) (3:47)
11. Whiskers (1:10)
12. Alpha Centauri (4:00)
13. Soul Purge (feat Foreign Beggars) (3:00)
14. Diplodocus (3:01)
15. Paper Doll (1:06)
16.Dystopia (0:58)
17. Sunhammer (feat Amon Tobin) (3:48)
18. Stigma (3:25)
19. Square Feet (3:28)

"Отчет EAC" ▼Exact Audio Copy V0.99 prebeta 5 from 4. May 2009

EAC extraction logfile from 3. April 2010, 14:38

Noisia / Split The Atom

Used drive: PIONEER DVD-RWDVR-112D Adapter: 1ID: 0

Read mode : Secure
Utilize accurate stream : Yes
Defeat audio cache: Yes
Make use of C2 pointers : No

Read offset correction: 48
Overread into Lead-In and Lead-Out: No
Fill up missing offset samples with silence : Yes
Delete leading and trailing silent blocks : No
Null samples used in CRC calculations : Yes
Used interface: Native Win32 interface for Win NT & 2000
Gap handling: Appended to previous track

Used output format: User Defined Encoder
Selected bitrate: 320 kBit/s
Quality : High
Add ID3 tag : No
Command line compressor : C:Program Files (x86)Exact Audio CopyFlacflac.exe
Additional command line options : -V -8 -T "artist=%a" -T "title=%t" -T "album=%g" -T "date=%y" -T "tracknumber=%n" -T "genre=%m" %s

TOC of the extracted CD

Track | Start|Length| Start sector | End sector
---------------------------------------------------------
1|0:00.00 |4:05.20 | 0|18394
2|4:05.20 |4:53.05 | 18395|40374
3|8:58.25 |0:57.42 | 40375|44691
4|9:55.67 |5:42.31 | 44692|&
b06da1a6c82c646eff5a5fbb121b288f9c8fd0be(2010) Noisia / Split The Atom (Drum & Bass, Electro) [FLAC (tracks)] (2010) Noisia / Split The Atom (Drum & Bass, Electro) [FLAC (tracks)] " />

Аплоадер: Админ, дата: 29-12-2010, 17:18, торрент скачан: 359 раз

Понравилась раздача? Посмотрите эти:
  • (2009) SHAKIRA / She Wolf (US Edition) (Pop) [Flac (tracks+.cue), lossless] ...
  • (2010)Scorpions/Sting In The Tail [FLAC (tracks+cue), lossless]
  • (2010) ПИKНИК / Театр Абсурда (Art-Rock) [FLAC (tracks+.cue), lossless]
  • (2010) Deftones / Diamond Eyes (Nu metal / Alternative) [FLAC, (tracks+ cu ...
  • (2008) Pink / Funhouse (Pop) [FLAC (tracks) lossless]
  • (2010) Eminem / Recovery (Rap / Hip-Hop) [FLAC (tracks+.cue) lossless]
  • (2010) Начало / Inception (by Hans Zimmer) (Score) [FLAC (tracks+.cue) loss ...
  • (2010) Michael Jackson - Michael (Pop) [FLAC, (tracks+.cue), lossless]
  • (2009) Michael Jackson / The Stripped Mixes (POP) [Flac / Tracks + .cue]
  • (2010) Zaz / Zaz (Nu jazz, Chanson, Soul) [FLAC (tracks+.cue), lossless]
  • (2006) DMX / Year Of The Dog...Again (EU) (Rap) [FLAC (tracks)]
  • (2000) Bomfunk MCs / In Stereo (Special 2CD Edition) (Electro, Hip-Hop, Fun ...
  • (Дискография, 2003-2012) Noisia (Drum & Bass, Neurofunk, Dubstep, Electro H ...
  • (2010) Ne-Yo / Libra Scale (Japanese Edition) (RnB) [FLAC (tracks+.cue) los ...
  • (2010) Rihanna / Loud (R&B) [FLAC (tracks+.cue), lossless]
  • (2003) DJ Zinc / Faster (DnB, Breaks) [ FLAC (tracks+.cue), lossless]
  • (2011) Mobthrow / Mobthrow (Drum & Bass / Dubstep / IDM) [FLAC (tracks+.cue ...
  • (2009) Sub Focus/ Sub Focus(Drum & Bass) [FLAC (tracks+.cue), lossless]
  • (2011) Nu:Tone / Words and Pictures(Drum & Bass / Liquid Funk) [FLAC (track ...
  • (2011) Nero / Welcome Reality (Dubstep / House / Drum & Bass) [FLAC (tracks ...
  • (1999) Muffler / Muffler (Drum & Bass) [FLAC (tracks+.cue), lossless]
  • (2012) Noisia / Split The Atom: Special Edition (Drum & Bass, Dubstep) (Web ...
  • (2012) Netsky / 2 (Drum & Bass, Dubstep) [FLAC (tracks+.cue), lossless]
  • (2010) Sade / Soldier Of Love ( jazz, soul, blues) [FLAC (tracks) lossless] ...
  • (2010) Morcheeba / Blood Like Lemonade ( Electronic, Downtempo, Pop, Trip-h ...
  • Информация
    Посетители, находящиеся в группе Гости, не могут оставлять комментарии к данной публикации.