вход на сайт

Имя пользователя :
Пароль :

Восстановление пароля Регистрация
(2010) Enduser / 1-3 (DnB, Dubstep, Breakcore) [FLAC (tracks+.cue), lossless]
Рейтинг:
(голосов: 1)



[img]{THEME}/images/logopost.png[/img]



Enduser / 1-3

Исполнитель: Enduser
Альбом: 1-3
Тип альбома: Студийный
Лейбл: Ad Noiseam
Год выпуска: 2010
Жанр: DnB, Dubstep, Breakcore
Формат: FLAC (tracks+.cue)
Битрейт: lossless
Продолжительность:00:22:52

Tреклист:
[05:57] 01. Enduser - 2/3
[04:36] 02. Enduser - Death Vest 09
[07:05] 03. Enduser - 1/3
[05:13] 04. Enduser - Interruption 4 (Remix by Cardopusher)


"Отчет XLD" ▼X Lossless Decoder version 20100424 (118.0)

XLD extraction logfile from 2010-04-30 13:50:06 -0700

Enduser / 1/3

Used drive : MATSHITA DVD-R UJ-868 (revision KB19)

Use cdparanoia mode : YES (CDParanoia III 10.2 engine)
Disable audio cache : OK for the drive with cache less than 2750KB
Make use of C2 pointers : NO
Read offset correction : 102
Max retry count : 100

TOC of the extracted CD
Track | Start | Length | Start sector | End sector
---------------------------------------------------------
1 | 00:00:00 | 05:57:34 | 0 | 26808
2 | 05:57:34 | 04:36:28 | 26809 | 47536
3 | 10:33:62 | 07:05:35 | 47537 | 79446
4 | 17:39:22 | 05:13:32 | 79447 | 102953

Track 01
Filename : /Users/snowolf/Music/XLD/01 - 2пјЏ3.flac
/Users/snowolf/Music/XLD/01 - 2пјЏ3.mp3

Pre-gap length : 00:02:00

CRC32 hash (test run) : F4F06085
CRC32 hash : F4F06085
CRC32 hash (skip zero) : D29ED060
AccurateRip signature : 836E530C
->Track not present in AccurateRip database.
Statistics
Read error : 0
Skipped (treated as error) : 0
Edge jitter error (maybe fixed) : 0
Atom jitter error (maybe fixed) : 0
Drift error (maybe fixed) : 0
Dropped bytes error (maybe fixed) : 0
Duplicated bytes error (maybe fixed) : 0
Inconsistency in error sectors : 0

Track 02
Filename : /Users/snowolf/Music/XLD/02 - Death Vest 09.flac
/Users/snowolf/Music/XLD/02 - Death Vest 09.mp3

Pre-gap length : 00:02:00

CRC32 hash (test run) : 7D880FD8
CRC32 hash : 7D880FD8
CRC32 hash (skip zero) : 2B0387D0
AccurateRip signature : 8595DFB3
->Track not present in AccurateRip database.
Statistics
Read error : 0
Skipped (treated as error) : 0
Edge jitter error (maybe fixed) : 0
Atom jitter error (maybe fixed) : 0
Drift error (maybe fixed) : 0
Dropped bytes error (maybe fixed) : 0
Duplicated bytes error (maybe fixed) : 0
Inconsistency in error sectors : 0

Track 03
Filename : /Users/snowolf/Music/XLD/03 - 1пјЏ3.flac
/Users/snowolf/Music/XLD/03 - 1пјЏ3.mp3

Pre-gap length : 00:02:00

CRC32 hash (test run) : 9F2F969A
CRC32 hash : 9F2F969A
CRC32 hash (skip zero) : D4C5DF9F
AccurateRip signature : 6A606FB9
->Track not present in AccurateRip database.
Statistics
Read error : 0
Skipped (treated as error) : 0
Edge jitter error (maybe fixed) : 0
Atom jitter error (maybe fixed) : 0
Drift error (maybe fixed) : 0
Dropped bytes error (maybe fixed) : 0
Duplicated bytes error (maybe fixed) : 0
Inconsistency in error sectors : 0

Track 04
Filename : /Users/snowolf/Music/XLD/04 - Interruption 4 - Remix by Cardopusher.flac
/Users/snowolf/Music/XLD/04 - Interruption 4 - Remix by Cardopusher.mp3

Pre-gap length : 00:02:00

CRC32 hash (test run) : CF6CB446
CRC32 hash : CF6CB446
CRC32 hash (skip zero) : 572CAC7B
AccurateRip signature : C670F2F8
->Track not present in AccurateRip database.
Statistics
Read error : 0
Skipped (treated as error) : 0
Edge jitter error (maybe fixed) : 0
Atom jitter error (maybe fixed) : 0
Drift error (maybe fixed) : 0
Dropped bytes error (maybe fixed) : 0
Duplicated bytes error (maybe fixed) : 0
Inconsistency in error sectors : 0

No errors occurred

End of status report

"Отчет ABC" ▼------------------------------------------------------
Filename: 01 - Enduser - 2-3.flac (45.90mb)
Source: MPEG (probability 95%)
Detect Mode : 8
Date: 12.12.2010 02-06-04
------------------------------------------------------
----------------------------------------
df093a675792493bcda405a27a2e0b883f51a10c(2010) Enduser / 1-3 (DnB, Dubstep, Breakcore) [FLAC (tracks+.cue), lossless] (2010) Enduser / 1-3 (DnB, Dubstep, Breakcore) [FLAC (tracks+.cue), lossless] " />

Аплоадер: Админ, дата: 12-12-2010, 14:30, торрент скачан: 359 раз

Понравилась раздача? Посмотрите эти:
Информация
Посетители, находящиеся в группе Гости, не могут оставлять комментарии к данной публикации.