вход на сайт

Имя пользователя :
Пароль :

Восстановление пароля Регистрация
(2003) DJ Zinc / Faster (DnB, Breaks) [ FLAC (tracks+.cue), lossless]
Рейтинг:
(голосов: 1)



[img]{THEME}/images/logopost.png[/img]



DJ Zinc / Faster

Исполнитель: DJ Zinc
Альбом: Faster
Тип альбома: Студийный
Год выпуска: 2003
Жанр: DnB, Breaks
Формат: FLAC (tracks+.cue)
Битрейт: lossless
Продолжительность:00:62:54

Tреклист:
01 - Zinc - Faster [03:49]
02 - Zinc - You Follow [03:05]
03 - Zinc - Voodoo [03:49]
04 - Zinc - Illa [06:02]
05 - Zinc - Departure [04:20]
06 - Zinc - Umbongo [01:55]
07 - Zinc - Flim [03:13]
08 - Zinc - Anything [04:02]
09 - Zinc - People 4 [03:56]
10 - Zinc - Road Rage [04:38]
11 - Zinc - Next Tuesday [04:02]
12 - Zinc - Fair Flight [03:29]
13 - Zinc - Casa De La Musica [03:57]
14 - Zinc - Hear No Evil [04:52]
15 - Zinc - Since [07:37]

"Отчет EAC" ▼Exact Audio Copy V0.99 prebeta 5 from 4. May 2009

EAC extraction logfile from 24. September 2009, 17:50

Zinc / Faster

Used drive: TSSTcorpDVD-ROM TS-H352C Adapter: 0ID: 0

Read mode : Secure
Utilize accurate stream : Yes
Defeat audio cache: Yes
Make use of C2 pointers : No

Read offset correction: 6
Overread into Lead-In and Lead-Out: No
Fill up missing offset samples with silence : Yes
Delete leading and trailing silent blocks : No
Null samples used in CRC calculations : Yes
Used interface: Native Win32 interface for Win NT & 2000
Gap handling: Appended to previous track

Used output format: User Defined Encoder
Selected bitrate: 768 kBit/s
Quality : High
Add ID3 tag : No
Command line compressor : C:Program FilesExact Audio CopyFLACFLAC.EXE
Additional command line options : -V -8 -T "artist=%a" -T "title=%t" -T "album=%g" -T "date=%y" -T "tracknumber=%n" -T "genre=%m" %s

TOC of the extracted CD

Track | Start|Length| Start sector | End sector
---------------------------------------------------------
1|0:00.00 |3:49.29 | 0|17203
2|3:49.29 |3:05.72 | 17204|31150
3|6:55.26 |3:49.21 | 31151|48346
4| 10:44.47 |6:02.36 | 48347|75532
5| 16:47.08 |
73cfff8c78e868eebb4e38a48f22528c853aae07(2003) DJ Zinc / Faster (DnB, Breaks) [ FLAC (tracks+.cue), lossless] (2003) DJ Zinc / Faster (DnB, Breaks) [ FLAC (tracks+.cue), lossless] " />

Аплоадер: Админ, дата: 11-12-2010, 19:02, торрент скачан: 359 раз

Понравилась раздача? Посмотрите эти:
  • (2009) НОЧНЫЕ СНАЙПЕРЫ — Армия2009 (русский рок) [FLAC (lossless), tracks+. ...
  • (2009) SHAKIRA / She Wolf (US Edition) (Pop) [Flac (tracks+.cue), lossless] ...
  • (2010)Scorpions/Sting In The Tail [FLAC (tracks+cue), lossless]
  • (2010) ПИKНИК / Театр Абсурда (Art-Rock) [FLAC (tracks+.cue), lossless]
  • (2010) Deftones / Diamond Eyes (Nu metal / Alternative) [FLAC, (tracks+ cu ...
  • (2008) Pink / Funhouse (Pop) [FLAC (tracks) lossless]
  • (Дискография) GORILLAZ (Trip-Hop) [FLAC (tracks + .cue) lossless]
  • (2010) Eminem / Recovery (Rap / Hip-Hop) [FLAC (tracks+.cue) lossless]
  • (2010) Начало / Inception (by Hans Zimmer) (Score) [FLAC (tracks+.cue) loss ...
  • (2010) Michael Jackson - Michael (Pop) [FLAC, (tracks+.cue), lossless]
  • (2010) Нюша / Выбирать чудо (Pop) [FLAC(tracks+.cue), lossless]
  • (2009) Michael Jackson / The Stripped Mixes (POP) [Flac / Tracks + .cue]
  • (2010, сборник) VA / Playaz Digital Volume 3 (Drum & bass) [ MP3 , 320/CBR ...
  • (2010) Ne-Yo / Libra Scale (Japanese Edition) (RnB) [FLAC (tracks+.cue) los ...
  • (2010) Rihanna / Loud (R&B) [FLAC (tracks+.cue), lossless]
  • (2009) THE CRYSTAL METHOD - Divided By Night - (Breakbeat/Electronic/Breaks ...
  • (2010) Morcheeba / Blood Like Lemonade ( Electronic, Downtempo, Pop, Trip-h ...
  • (2010) Linkin Park / A Thousand Suns (Alternative, Electronic) [FLAC (track ...
  • (2011) Electric Universe / Higher Modes (Psytrance, Full On) [FLAC (tracks+ ...
  • (2011) Ленинград / Хна (Rock) [FLAC (tracks+.cue), lossless]
  • Информация
    Посетители, находящиеся в группе Гости, не могут оставлять комментарии к данной публикации.