вход на сайт

Имя пользователя :
Пароль :

Восстановление пароля Регистрация
(2010) Sade / Soldier Of Love ( jazz, soul, blues) [FLAC (tracks) lossless]
Рейтинг:
(голосов: 1)



[img]{THEME}/images/logopost.png[/img]



Исполнитель: Sade
Альбом: Soldier Of Love
Жанр: jazz, soul, blues
Год выпуска: Feb 2010
Формат: FLAC (tracks)
Битрейт: lossless
Продолжительность: 00:41:54
Источник: торрент.ру

Прослушать, ознакомиться

Трэклист:
01. The Moon And The Sky (04:27)
02. Soldier Of Love (05:58)
03. Morning Bird (03:55)
04. Babyfather (04:40)
05. Long Hard Road (03:02)
06. Be That Easy (03:40)
07. Bring Me Home (04:08)
08. In Another Time (05:05)
09. Skin (04:13)
10.The Safest Place (02:46)

Log EAC:▼
Exact Audio Copy V0.99 prebeta 5 from 4. May 2009

EAC extraction logfile from 5. February 2010, 11:15

Sade / Soldier Of Love

Used drive: HL-DT-STDVD-RAM GSA-H54N Adapter: 0ID: 0

Read mode : Secure
Utilize accurate stream : Yes
Defeat audio cache: Yes
Make use of C2 pointers : No

Read offset correction: 102
Overread into Lead-In and Lead-Out: Yes
Fill up missing offset samples with silence : Yes
Delete leading and trailing silent blocks : No
Null samples used in CRC calculations : Yes
Used interface: Native Win32 interface for Win NT & 2000
Gap handling: Appended to previous track

Used output format: User Defined Encoder
Selected bitrate: 320 kBit/s
Quality : High
Add ID3 tag : No
Command line compressor : C:ProgrammeExact Audio Copy V0.99 pb5Flacflac.exe
Additional command line options : -V -8 -T "artist=%a" -T "title=%t" -T "album=%g" -T "date=%y" -T "tracknumber=%n" -T "genre=%m" %s


TOC of the extracted CD

Track | Start|Length| Start sector | End sector
---------------------------------------------------------
1|0:00.00 |4:27.42 | 0|20066
2|4:27.42 |5:58.38 | 20067|46954
3| 10:26.05 |3:55.24 | 46955|64603
4| 14:21.29 |4:40.11 | 64604|85614
5| 19:01.40 |3:02.54 | 85615|99318&
3a74f566c11e697ae23c0605c185079597d6edef(2010) Sade / Soldier Of Love ( jazz, soul, blues) [FLAC (tracks) lossless] (2010) Sade / Soldier Of Love ( jazz, soul, blues) [FLAC (tracks) lossless] " />

Аплоадер: Админ, дата: 6-02-2010, 09:01, торрент скачан: 359 раз

Понравилась раздача? Посмотрите эти:
Информация
Посетители, находящиеся в группе Гости, не могут оставлять комментарии к данной публикации.