вход на сайт

Имя пользователя :
Пароль :

Восстановление пароля Регистрация
(2012) Holly Cole / Night (Vocal Jazz) [FLAC (tracks+.cue), lossless]
Рейтинг:
(голосов: 1)



[img]{THEME}/images/logopost.png[/img]



Исполнитель: Holly Cole
Страна: Канада
Альбом: Night
Тип альбома: Студийный
Год выпуска: 2012
Жанр: Vocal Jazz
Страна (Издатель, Каталожный номер): Япония (EMI Music Japan, Rumpus Room Rec., 4047179540025)
Аудиокодек: FLAC (*.flac)
Тип рипа: tracks+.cue
Битрейт: lossless
Log-файлы: Присутствуют.
Наличие сканов в содержимом раздачи: Да. (JPG, 300DPI, 3,12MB)
Продолжительность: 00:40:16


Об исполнителе: Holly Cole родилась 25 ноября 1963 года в Галифаксе, Новая Шотландия. Является наиболее ярким представителем канадского джаза. Особенно популярна в Канаде и Японии. Обладает красивым тембровым универсальным голосом, что позволяет ей выбирать большой диапазон музыкальных произведений различных жанров: от джаза до кантри. В 1983 году Коул отправляется в Торонто, чтобы посвятить себя музыкальной карьере. В 1986 году она основывает трио с Дэвидом Пильчемом (бас) и пианистом Аароном Дэвисом. В 1989 году, Holly Cole Trio выпускают EP в стиле «Рождественский блюз», который попадает в чарты по версии Pretenders "2000 Miles".


Wikipedia| YouTube | Facebook | Official page



Треклист:
01. You Only Live Twice (03:17)
02. Walk Away (03:40)
03. Good Time Charlies Got The Blues (03:11)
04. Youve Got A Secret (04:34)
05. Viva Las Vegas (04:06)
06. I Only Have Eyes For You (03:28)
07. I Thought Of You Again (03:31)
08. Love Lies (03:56)
09. Whistlin Past The Graveyard (03:09)
10. If You Go Away (03:26)
11. If You Could Read My Mind (03:54)

Лог создания рипа (XLD log) ▼TextX Lossless Decoder version 20120609 (141.0)

XLD extraction logfile from 2012-12-07 15:16:15 +0100

Holly Cole / Night

Used drive : HL-DT-ST DVDRW GA11N (revision KA16)

Ripper mode : XLD Secure Ripper
Disable audio cache : OK for the drive with a cache less than 1375KiB
Make use of C2 pointers : NO
Read offset correction : 667
Max retry count : 100
Gap status : Analyzed, Appended (except HTOA)

TOC of the extracted CD
Track | Start | Length | Start sector | End sector
---------------------------------------------------------
1 | 00:00:00 | 03:17:00 | 0 | 14774
2 | 03:17:00 | 03:40:23 | 14775 | 31297
3 | 06:57:23 | 03:11:50 | 31298 | 45672
4 | 10:08:73 | 04:34:68 | 45673 | 66290
5 | 14:43:66 | 04:06:08 | 66291 | 84748
6 | 18:49:74 | 03:28:51 | 84749 | 100399
7 | 22:18:50 | 03:31:34 | 100400 | 116258
8 | 25:50:09 | 03:56:01 | 116259 | 133959
9 | 29:46:10 | 03:09:12 | 133960 | 148146
10 | 32:55:22 | 03:26:44 | 148147 | 163640
11 | 36:21:66 | 03:54:71 | 163641 | 181261

AccurateRip Summary (DiscID: 001093f7-00900fef-9809700b)
6160d7928d7e38e6dc9f4a58a88f83f1b969b54f(2012) Holly Cole / Night (Vocal Jazz) [FLAC (tracks+.cue), lossless] (2012) Holly Cole / Night (Vocal Jazz) [FLAC (tracks+.cue), lossless] " />

Аплоадер: Админ, дата: 18-12-2012, 19:21, торрент скачан: 359 раз

Понравилась раздача? Посмотрите эти:
  • (2013) Kanye West | Yeezus (Rap|Experimental Hip-Hop) [FLAC (tracks+.cue), ...
  • (2012) The Lumineers / The Lumineers (Indie-folk, Folk-rock) [FLAC (tracks+ ...
  • (2012) Emma Hewitt / Burn The Sky Down (2CD) (Trance) [FLAC (tracks+.cue), ...
  • (2013) by M83, Anthony Gonzalez & Joseph Trapanese / Обливион / Oblivion (S ...
  • (2013) VA / Dalla in Jazz (Jazz, Vocal Jazz) [FLAC (tracks+.cue), lossless] ...
  • (2013, Сборник) VA / Bar Classics 9 (2CD) (Jazz, Vocal Jazz, Easy Listening ...
  • (2013) Paramore / Paramore (Japan Edition) (Alternative Rock) [FLAC (tracks ...
  • (2013) Bullet For My Valentine / Temper Temper (Japanese Deluxe Edition) (M ...
  • (2012) Taylor Swift / Red (Target Exclusive Deluxe Edition) + Booklet (Pop ...
  • (2013) Patricia Barber / Smash (Vocal Jazz, Contemporary Jazz) [FLAC (track ...
  • (2012) Владимир Кузьмин / Endorfin (Русский Рок) [FLAC (image+.cue), lossle ...
  • (2010) Katie Melua / The House ( jazz-pop, vocal jazz) [FLAC (tracks + .cu ...
  • (2011) Moby / Destroyed (Electronic, Downtempo, Ambient) [FLAC (tracks+.cue ...
  • (2011) Sungha Jung / Irony (Acoustic guitar, Fingerstyle) [FLAC (tracks+.cu ...
  • (2012) Bruce Springsteen / Wrecking Ball (Folk Rock) [FLAC (tracks+.cue),l ...
  • (2012) Norah Jones / Little Broken Hearts (Vocal Jazz, Alternative Rock) [F ...
  • (2009) Paul Cardall / Sacred Piano (New Age) [FLAC (tracks+.cue), lossless] ...
  • (2012) Hans Zimmer / The Dark Knight Rises (Film score) [FLAC (tracks+.cu ...
  • (2012) Sally Night / Love For Sale (Vocal Jazz) [FLAC (tracks+.cue), lossle ...
  • (2012) Linkin Park / LP Underground 12 (Alternative Rock) [FLAC (tracks+.cu ...
  • (2012) Ne-Yo / R.E.D. (Target Exclusive Edition) (R&B, Soul, Pop) [FLAC (tr ...
  • (2012) Lana Del Rey / Born To Die (Indie Pop) [FLAC (tracks+.cue), lossless ...
  • (2012) Young Guns / Bones (Alternative Rock) [FLAC (tracks +.cue), lossless ...
  • (2012) Switchfoot / Vice Re-Verses (Remixes) (Alternative, Christian Rock, ...
  • (2011) 7eventh Time Down / Alive In You (Alternative Rock/Modern Rock/Chris ...
  • Информация
    Посетители, находящиеся в группе Гости, не могут оставлять комментарии к данной публикации.