вход на сайт

Имя пользователя :
Пароль :

Восстановление пароля Регистрация
(2011) Sam Levine / Smooth Sax Romance (Smooth Jazz) [FLAC (image+.cue), lossless]
Рейтинг:
(голосов: 1)



[img]{THEME}/images/logopost.png[/img]



Исполнитель: Sam Levine
Альбом: Smooth Sax Romance
Тип альбом: Compilation
Год выпуска:2011
Жанр:Smooth Jazz
Страна (Издатель, Каталожный номер):US(Green Hill Productions, GHD5785)
Аудиокодек: FLAC (*.flac)
Тип рипа: image+.cue
Битрейт: lossless
Лог файлы: присутствуют
Наличие сканов в содержимом раздачи: Есть
Продолжительность: 00:58:37

Amazon | Official page | Last.fm

Tреклист:
01. Lets Stay Together (5:30)
02. Overjoyed (4:54)
03. Room With A View (5:44)
04. Every Time I Close My Eyes (5:03)
05. Just My Imagination (Running Away With Me) (4:39)
06. Sweetest Taboo (4:22)
07. Looking Through Your Eyes (4:33)
08. Always And Forever (4:32)
09. House Of Love (4:54)
10. Shower The People (4:34)
11. Tell It Like It Is (5:14)
12. Tears Of Joy (4:32)

Лог создания рипа ▼Text
Exact Audio Copy V0.99 prebeta 5 from 4. May 2009

EAC extraction logfile from 29. August 2011, 4:47

Sam Levine / Smooth Sax Romance

Used drive : HL-DT-STDVD-RAM GSA-H54N Adapter: 0 ID: 0

Read mode : Secure
Utilize accurate stream : Yes
Defeat audio cache : Yes
Make use of C2 pointers : No

Read offset correction : 102
Overread into Lead-In and Lead-Out : No
Fill up missing offset samples with silence : Yes
Delete leading and trailing silent blocks : No
Null samples used in CRC calculations : Yes
Used interface : Native Win32 interface for Win NT & 2000

Used output format : User Defined Encoder
Selected bitrate : 320 kBit/s
Quality : High
Add ID3 tag : No
Command line compressor : C:Program FilesExact Audio CopyFlacflac.exe
Additional command line options : -8 -V %s


TOC of the extracted CD

Track | Start | Length | Start sector | End sector
---------------------------------------------------------
1 | 0:00.00 | 5:30.34 | 0 | 24783
2 | 5:30.34 | 4:54.27 | 24784 | 46860
3 | 10:24.61 | 5:44.52 | 46861 | 72712
4 | 16:09.38 | 5:03.26 | 72713 | 95463
5 | 21:12.64 | 4:39.58 | 95464 | 116446
6 | 25:52.47 | 4:22.50 | 116447 | 136146
7 | 30:15.22 | 4:33.21 | 136147 | 156642
8 | 34:48.43 | 4:32.35 | 156643 | 177077
9 | 39:21.03 | 4:54.50 | 177078 | 199177
10 | 44:15.53 | 4:34.57 | 199178 | 219784
11 | 48:50.35 | 5:14.32 | &n
e3ce54fd9e1034cf17c75ca9ffd08fdc0bd9c669(2011) Sam Levine / Smooth Sax Romance (Smooth Jazz) [FLAC (image+.cue), lossless] (2011) Sam Levine / Smooth Sax Romance (Smooth Jazz) [FLAC (image+.cue), lossless] " />

Аплоадер: Админ, дата: 24-11-2012, 17:46, торрент скачан: 359 раз

Понравилась раздача? Посмотрите эти:
  • (1996) George Michael / Older (1st Press Japan) (Electronic, Pop/Rock) [FLA ...
  • (2013) Buddy Guy / Rhythm & Blues (2CD) (Blues) [FLAC (image+.cue), Lossles ...
  • (2008) Ella Fitzgerald & Louis Armstrong / Autumn In New York (Vocal Jazz) ...
  • (2012) Matt Bianco / Hideaway (Japan CD) (Smooth Jazz, Fusion, Latin-Pop) [ ...
  • (2002) Urker / Уркер / Made In Kazakhstan (Pop, Ethno) [FLAC (image+.cue), ...
  • (2008) Pink / Funhouse (Pop) [FLAC (tracks) lossless]
  • (2010) Сергей Трофимов (Трофим) / Всё не важно (Шансон) [FLAC(image+.cue), ...
  • (2010) Ассаи / Лифт (Rap) [FLAC(image+.cue), lossless]
  • (2008) The Magic Of Nomads / Bulbul Zaman (folk-ethnic / smooth jazz / inst ...
  • (2010) A-HA / 25 (2 CD) (Pop) [FLAC (image + .cue)]
  • (2011) Sade / The Ultimate Collection ( Soul, Smooth-Jazz, Pop) [FLAC (trac ...
  • (2011) The Prodigy / Worlds On Fire (Big Beat, Rave) [FLAC (image+.cue), lo ...
  • (2012) Руставели / Начало света (Rap) [FLAC (image+.cue), lossless]
  • (2012, Сборник) VA / Saxophone Golden Best (Jazz, Smooth Jazz) [FLAC (track ...
  • (2012) Jessy Carolina and The Hot Mess / Bootlegs: January 2012 (Vocal Jazz ...
  • (2012, Сборник) VA / Verve Today 2012 (Mainstream Jazz, Vocal Jazz) [FLAC ( ...
  • (2012) Shilts / All Grown Up (Smooth, Jazz-Pop) [FLAC (tracks+.cue), lossle ...
  • (1976) The Eagles / Hotel California [Japan Remastered] (Country Rock) [FLA ...
  • (2010) Sade / Soldier Of Love ( jazz, soul, blues) [FLAC (tracks) lossless] ...
  • (2009) Чиж & Co / Лучшее. Золотая коллекция (Rock) [FLAC (image+.cue), loss ...
  • (2011) Слот / F5 (Alternative Metal) [FLAC (image+.cue)lossless]
  • (2011) Слот / Break The Code (Alternative Metal) [FLAC (image+.cue)lossless ...
  • (2012) Peter White / Here We Go (Smooth Jazz) [FLAC (tracks+.cue), lossles ...
  • (2010) Dutch / A Bright Cold Day (Trip-Hop) [FLAC (image+.cue), lossless]
  • (2011) Gorillaz - The Singles Collection 2001-2011 (Alternative / Hip-Hop / ...
  • Информация
    Посетители, находящиеся в группе Гости, не могут оставлять комментарии к данной публикации.