вход на сайт

Имя пользователя :
Пароль :

Восстановление пароля Регистрация
(2012, Сборник) VA / Verve Today 2012 (Mainstream Jazz, Vocal Jazz) [FLAC (image+.cue), lossless]
Рейтинг:
(голосов: 1)



[img]{THEME}/images/logopost.png[/img]



Сборник
Исполнитель: VA
Название сборника: Verve Today 2012
Год выпуска: 2012
Жанр: Mainstream Jazz, Vocal Jazz
Страна (Издатель): Германия (Universal Music)
Аудиокодек: FLAC (*.flac)
Тип рипа: image+.cue
Битрейт: lossless
Log-файл: Присутствует.
Наличие сканов в содержимом раздачи: Нет.
Продолжительность: 01:14:16


Tреклист:
01. Terez Montcalm - Rules Of The Road (04:24)
02. Chihiro Yamanaka - Soul Searchin (04:25)
03. Alice Francis - Sista (03:42)
04. Trombone Shorty Feat. Cyril & Ivan Neville - Nervis (03:09)
05. Malia - I Put A Spell On You (04:06)
06. Bojan Z - Sizuit Forever (04:55)
07. Falk & Sons - Wer Nur Den Lieben Gott Lasst Walten (03:09)
08. Ndidi O - It Isnt You (04:04)
09. Bugge Wesseltoft - Chicken Feathers (06:57)
10. Solveig Slettahjell & Morten Qvenild - Jenny Wren (03:51)
11. Rolf & Joachim Kuhn Quartet - Light Year (05:38)
12. Pizzicato One Feat. Rosey - One (02:38)
13. Hamel - Demise (03:56)
14. Stephane Belmondo - You And I (06:18)
15. Sonny Rollins Feat. Roy Hargrove - Rain Check (12:58)

Лог создания рипа (EAC log) ▼TextExact Audio Copy V1.0 beta 3 from 29. August 2011

EAC extraction logfile from 7. October 2012, 11:13

Various / Verve Today 2012

Used drive : Optiarc DVD RW AD-7243S Adapter: 1 ID: 1

Read mode : Secure
Utilize accurate stream : Yes
Defeat audio cache : Yes
Make use of C2 pointers : No

Read offset correction : 48
Overread into Lead-In and Lead-Out : No
Fill up missing offset samples with silence : Yes
Delete leading and trailing silent blocks : No
Null samples used in CRC calculations : Yes
Used interface : Native Win32 interface for Win NT & 2000

Used output format : User Defined Encoder
Selected bitrate : 1024 kBit/s
Quality : High
Add ID3 tag : No
Command line compressor : C:Program FilesExact Audio CopyFLACFLAC.EXE
Additional command line options : -8 -V %source%

TOC of the extracted CD

Track | Start | Length | Start sector | End sector
---------------------------------------------------------
1 | 0:00.00 | 4:24.67 | 0 | 19866
2 | 4:24.67 | 4:25.39 | 19867 | 39780
3 | 8:50.31 | 3:42.36 | 39781 | 56466
4 | 12:32.67 | 3:09.48 | 56467 | 70689
5 | 15:42.40 | 4:06.14 | 70690 | 89153
6 | 19:48.54 | 4:55.61 | 89154 | 111339
7 | 24:44.40 | 3:09.59 | 111340 | 125573
8 | 27:54.24 | 4:04.43 | 125574 | 143916
9 | 31:58.67 | 6:57.05 | 143917 | 175196
10 | 38:55.72 | 3:51.05
9fc102463ef1e55d8e3d12448cebe9f71c37a6a5(2012, Сборник) VA / Verve Today 2012 (Mainstream Jazz, Vocal Jazz) [FLAC (image+.cue), lossless] (2012, Сборник) VA / Verve Today 2012 (Mainstream Jazz, Vocal Jazz) [FLAC (image+.cue), lossless] " />

Аплоадер: Админ, дата: 3-11-2012, 16:08, торрент скачан: 359 раз

Понравилась раздача? Посмотрите эти:
  • (2012) The Bryan Ferry Orchestra / The Jazz Age (Jazz) [FLAC (image+.cue), ...
  • (2008) Ella Fitzgerald & Louis Armstrong / Autumn In New York (Vocal Jazz) ...
  • (2012) Lazlo / Lazlo (Electro Swing, Nu Jazz, Electronic) [FLAC (tracks+.cu ...
  • (2013) Harry Connick, Jr. / Smokey Mary (Vocal Jazz, Funk) [FLAC (image+.cu ...
  • (2011, Сборник) VA / Blue Note Jazz Inspiration - Best Of Bar Jazz (Vocal J ...
  • (2012, Сборник) VA / Vintage Cafe 1,2 (4xCD) (Lounge, Lo-Fi, Jazz Blends) [ ...
  • (2013) VA / Dalla in Jazz (Jazz, Vocal Jazz) [FLAC (tracks+.cue), lossless] ...
  • (2013, Сборник) VA / Bar Classics 9 (2CD) (Jazz, Vocal Jazz, Easy Listening ...
  • (2012) Matt Bianco / Hideaway (Japan CD) (Smooth Jazz, Fusion, Latin-Pop) [ ...
  • (2008) The Magic Of Nomads / Bulbul Zaman (folk-ethnic / smooth jazz / inst ...
  • (2010) Zaz / Zaz (Nu jazz, Chanson, Soul) [FLAC (tracks+.cue), lossless]
  • (2011) Adele / 21 (Jazz, Lounge, Easy Listening) [FLAC (tracks + .cue), los ...
  • (2011) Michael Bublé / Christmas (Limited Edition) (Vocal Jazz, Christmas) ...
  • (2012) Katie Melua / Secret Symphony (Jazz Pop, Vocal Jazz) [FLAC (tracks+. ...
  • (2012) Christina Aguilera / The Best (Unofficial) (Pop) [FLAC (image+.cue), ...
  • (2012, Сборник) VA / Saxophone Golden Best (Jazz, Smooth Jazz) [FLAC (track ...
  • (2012) Jessy Carolina and The Hot Mess / Bootlegs: January 2012 (Vocal Jazz ...
  • (2012) Sally Night / Love For Sale (Vocal Jazz) [FLAC (tracks+.cue), lossle ...
  • (2012) Rod Stewart / Merry Christmas, Baby (Deluxe Edition) (Jazz) [FLAC (i ...
  • (2011) Sam Levine / Smooth Sax Romance (Smooth Jazz) [FLAC (image+.cue), lo ...
  • (2010) Sade / Soldier Of Love ( jazz, soul, blues) [FLAC (tracks) lossless] ...
  • (2011) Слот / F5 (Alternative Metal) [FLAC (image+.cue)lossless]
  • (2012) Peter White / Here We Go (Smooth Jazz) [FLAC (tracks+.cue), lossles ...
  • (2007, 4xCD Box Set) VA / Simply Brazil (Bossa Nova, Brazilian Jazz, Samba ...
  • (2012) Сплин / Обман зрения (Rock) [FLAC (image+.cue), lossless]
  • Информация
    Посетители, находящиеся в группе Гости, не могут оставлять комментарии к данной публикации.