вход на сайт

Имя пользователя :
Пароль :

Восстановление пароля Регистрация
(2012) Garou / Rhythm And Blues (Pop Rock, Blues, R&B) [WAVPack (image+.cue), lossless]
Рейтинг:
(голосов: 1)



[img]{THEME}/images/logopost.png[/img]



Исполнитель: Garou
Страна: Канада
Альбом: Rhythm And Blues
Тип альбома: Студийный
Год выпуска: 2012
Жанр: Pop Rock, Blues, R&B
Страна (Издатель, Каталожный номер): Россия (Mercury Rec.,/Universal Music, 4605026711617)
Аудиокодек: WAVPack (*.wv)
Тип рипа: image+.cue
Битрейт: lossless
Log-файл: Присутствует.
Наличие сканов в содержимом раздачи: Да. (JPG, 600DPI, 13,1MB)
Продолжительность: 00:44:50

Об исполнителе: Гару (фр. Garou, настоящее имя — Пьер Гаран (фр. Pierre Garand), род. 26 июня 1972, Шербрук, Канада) — франко-канадский музыкант, певец и актёр. Широкую известность приобрел после того, как сыграл роль Квазимодо в мюзикле «Нотр-Дам де Пари» в 1998 году.
В 2001 году у Гару родилась дочь Эмили.
В 2009 году Гару снимается в главной роли в фильме Эрика Киваняна «Возвращение любви» (фр. LAmour aller-retour).
12 февраля 2010 года Гару выступил на открытии зимних Олимпийских игр 2010 года в Ванкувере с песней «Un peu plus haut, un peu plus loin».

Tреклист:
01. Garou - Quand Tu Danses (02:57)
02. Garou - Little Green Bag (03:28)
03. Garou - Le jour se leve (03:20)
04. Garou - Marie-Jeanne (04:32)
05. Garou - I Put A Shell On You (03:11)
06. Garou - Hard To Handle (03:29)
07. Garou - If I Aint Got You (03:53)
08. Garou - Lonely Boy (03:24)
09. Garou - Cash City (04:50)
10. Garou - Sur La Route (03:20)
11. Garou - Bad Day (03:36)
12. Garou - Je Voudrais Voir New York (04:45)

Лог создания рипа (EAC log) ▼TextExact Audio Copy V1.0 beta 3 from 29. August 2011

Отчёт EAC об извлечении, выполненном 16. октября 2012, 17:09

Garou / Rhythm And Blues

Дисковод: Optiarc DVD RW AD-7280S Adapter: 1 ID: 0

Режим чтения : Достоверность
Использование точного потока : Да
Отключение кэша аудио : Да
Использование указателей C2 : Нет

Коррекция смещения при чтении : 48
Способность читать области Lead-in и Lead-out : Нет
Заполнение пропущенных сэмплов тишиной : Да
Удаление блоков с тишиной в начале и конце : Нет
При вычислениях CRC использовались нулевые сэмплы : Да
Интерфейс : Встроенный Win32-интерфейс для Win NT/2000

Выходной формат : Пользовательский кодировщик
Выбранный битрейт : 896 kBit/s
Качество : Высокий
Добавление ID3-тега : Нет
Утилита сжатия : D:distributivwavpackwavpack.exe
Дополнительные параметры : -hm -w "Year=%year%" -w "Genre=%genre%" %source% %dest%

TOC извлечённого CD

Трек | Старт | Длительность | Начальный сектор | Конечный сектор
---------------------------------------------------------------------
1 | 0:00.00 | 2:57.16 | 0 | 13290
2 | 2:57.16 | 3:28.64 | 13291 | 28954
3 | 6:26.05 | 3:20.49 | 28955 | 44003
4 | 9:46.54 | 4:32.17 | 44004 | 64420
5 | 14:18.71 | 3:11.58 | &nb
4ba5592646b1fce07bb3d29753ca566b761972b9(2012) Garou / Rhythm And Blues (Pop Rock, Blues, R&B) [WAVPack (image+.cue), lossless] (2012) Garou / Rhythm And Blues (Pop Rock, Blues, R&B) [WAVPack (image+.cue), lossless] " />

Аплоадер: Админ, дата: 31-10-2012, 20:04, торрент скачан: 359 раз

Понравилась раздача? Посмотрите эти:
  • (1993) Coverdale & Page / Coverdale & Page (EMI Holland)(Hard Rock) [FLAC ( ...
  • (2000) a-ha / Minor Earth | Major Sky (Alternative Rock, Synth-pop ) [FLAC ...
  • (2013) Al Di Meola / All Your Life (Fusion) [FLAC (image+.cue), lossless]
  • (2013) Buddy Guy / Rhythm & Blues (2CD) (Blues) [FLAC (image+.cue), Lossles ...
  • (2013) МакSим (Максим) / Другая реальность (Рор) [FLAC (image+.cue), lossle ...
  • (2011) Jim McCarty / Jim McCarty and Friends (Live Callahans) (Rockin Blues ...
  • (2013) Hadden Sayers / Rolling Soul (Blues-Rock) [FLAC (image+.cue), lossle ...
  • (2013) Devon Allman / Turquoise (Blues-Rock) [FLAC (image+.cue), lossless]
  • (2012) Mike Snowden / Cigar Box Guitar Evil (Blues-Rock) [FLAC (image+.cue) ...
  • (2013) Pinnick Gales Pridgen / Pinnick Gales Pridgen (Hard Rock, Heavy Blue ...
  • (2013) Krokus / Dirty Dynamite (Hard Rock) [FLAC (image+.cue), lossless]
  • (2012) Рем Дигга / Черника (Rap) [FLAC (tracks+.cue), lossless]
  • (Дискография) Garou (Pop/Rock) [MP3, 320 kbps/CBR]
  • (2011) Blues Cousins / KGB Blues (Blues Rock) [FLAC (image+.cue), lossless] ...
  • (2012) The Blues Overdrive / The Blues Overdrive (Blues-Rock) [FLAC (image+ ...
  • (Дискография, 2006-2012) Shym (French Pop, Dance, R&B, Soul) [FLAC (image+. ...
  • (2012) Gary Clark Jr. / Blak and Blu (Blues, Rock) [FLAC (image+.cue), loss ...
  • (2012) The Rockin Blues Express (feat. John Gumby Goodwin) / The Rockin Blu ...
  • (2012) Walter Trout / Blues For The Modern Daze (Blues, Blues Rock) [FLAC ( ...
  • (2012) Don Ray Band / Full Throttle (Blues, Blues-Rock) [APE (image+.cue), ...
  • Информация
    Посетители, находящиеся в группе Гости, не могут оставлять комментарии к данной публикации.