вход на сайт

Имя пользователя :
Пароль :

Восстановление пароля Регистрация
(2012) Jessy Carolina and The Hot Mess / Bootlegs: January 2012 (Vocal Jazz, Blues, New Orleans Jazz, Street Band) [FLAC (image+.cue), lossless]
Рейтинг:
(голосов: 1)



[img]{THEME}/images/logopost.png[/img]



Исполнитель: Jessy Carolina and The Hot Mess
Страна: США
Альбом: Bootlegs: January 2012
Тип альбома: Студийный
Год выпуска: 2012
Жанр: Vocal Jazz, Blues, New Orleans Jazz, Street Band
Страна (Издатель): США (Jessy Carolina and The Hot Mess)
Аудиокодек: FLAC (*.flac)
Тип рипа: image+.cue
Битрейт: lossless
Log-файл: Присутствует.
Наличие сканов в содержимом раздачи: Да. (JPG, 600DPI, 1,96MB)
Продолжительность: 00:57:06

Состав:
Jessy Carolina (vocals, washboard)
Jerron "Blind Boy" Paxton (vocals, piano, banjo)
Jordan Hyde (guitar)
Jay Sanford (Bass)
Mario J. Maggio (Clarinet, Tenor Saxophone)
Satoru Ohashi (Trumpet, Trombone)

Tреклист:
[00:31] 01. Jessy Carolina and The Hot Mess - Introduction by Blind Boy Paxton
[03:59] 02. Jessy Carolina and The Hot Mess - Nobodys Sweetheart
[03:08] 03. Jessy Carolina and The Hot Mess - Yes Sir, Thats My Baby
[04:33] 04. Jessy Carolina and The Hot Mess - Royal Garden Blues
[03:12] 05. Jessy Carolina and The Hot Mess - China Boy (Explicit)
[04:29] 06. Jessy Carolina and The Hot Mess - Louisiana Fairytale
[03:25] 07. Jessy Carolina and The Hot Mess - Muskrat Ramble
[05:15] 08. Jessy Carolina and The Hot Mess - My Melancholy Baby
[03:53] 09. Jessy Carolina and The Hot Mess - Ill Be a Friend with Pleasure
[03:05] 10. Jessy Carolina and The Hot Mess - Thats a Plenty
[03:38] 11. Jessy Carolina and The Hot Mess - Struttin With Some Barbecue
[05:20] 12. Jessy Carolina and The Hot Mess - Seems Like Old Times
[02:56] 13. Jessy Carolina and The Hot Mess - After Youve Gone
[04:34] 14. Jessy Carolina and The Hot Mess - What A Little Moonlight Can Do
[03:19] 15. Jessy Carolina and The Hot Mess - China Boy
[01:42] 16. Jessy Carolina and The Hot Mess - Ill See You in My Dreams

Лог создания рипа (EAC log) ▼TextExact Audio Copy V1.0 beta 3 from 29. August 2011

EAC extraction logfile from 5. July 2012, 16:54

Jessy Carolina and The Hot Mess / Bootlegs : January 2012

Used drive : ATAPI iHAS124 B Adapter: 1 ID: 0

Read mode : Secure
Utilize accurate stream : Yes
Defeat audio cache : Yes
Make use of C2 pointers : No

Read offset correction : 6
Overread into Lead-In and Lead-Out : No
Fill up missing offset samples with silence : Yes
Delete leading and trailing silent blocks : No
Null samples used in CRC calculations : Yes
Used interface : Native Win32 interface for Win NT & 2000

Used output format : User Defined Encoder
Selected bitrate : 768 kBit/s
Quality : High
Add ID3 tag : No
Command line compressor : C:Program FilesExact Audio CopyFLACFLAC.EXE
Additional command line options : -V -8 %source%

TOC of the extracted CD

Track | Start | Length | Start sector | End sector
---------------------------------------------------------
1 | 0:00.00 | 0:33.41 | 0 | 2515
2 | 0:33.41 | 4:01.19 | 2516 | 20609
3 | 4:34.60 | 3:10.29 | 20610 | 34888
4 | 7:45.14 |&n
d79e05df9181b9142816aff7f396ccf3a5706e56(2012) Jessy Carolina and The Hot Mess / Bootlegs: January 2012 (Vocal Jazz, Blues, New Orleans Jazz, Street Band) [FLAC (image+.cue), lossless] (2012) Jessy Carolina and The Hot Mess / Bootlegs: January 2012 (Vocal Jazz, Blues, New Orleans Jazz, Street Band) [FLAC (image+.cue), lossless] " />

Аплоадер: Админ, дата: 28-08-2012, 09:34, торрент скачан: 359 раз

Понравилась раздача? Посмотрите эти:
  • (2013) Buddy Guy / Rhythm & Blues (2CD) (Blues) [FLAC (image+.cue), Lossles ...
  • (2013) The Hamburg Blues Band / Friends For A LIVEtime (Blues Rock, Rock) [ ...
  • (2012) The Bryan Ferry Orchestra / The Jazz Age (Jazz) [FLAC (image+.cue), ...
  • (2008) Ella Fitzgerald & Louis Armstrong / Autumn In New York (Vocal Jazz) ...
  • (2013) Jessy J / Second Chances (Jazz, Smooth) [MP3 (tracks), 320 / CBR]
  • (2012) Lisa Mitchell / Bless This Mess (Indie) [MP3, 320/CBR]
  • (2013) VA / Dalla in Jazz (Jazz, Vocal Jazz) [FLAC (tracks+.cue), lossless] ...
  • (2013, Сборник) VA / Bar Classics 9 (2CD) (Jazz, Vocal Jazz, Easy Listening ...
  • NHL 12/13 / RS / Carolina Hurricanes vs. Ottawa Senators [Хоккей, 16,04.201 ...
  • Breathe Carolina / Hit and Run [2012, Dance, HDRip]
  • (2012) Matt Bianco / Hideaway (Japan CD) (Smooth Jazz, Fusion, Latin-Pop) [ ...
  • NHL 12/13, RS: Carolina Hurricanes vs Washington Capitals [хоккей,26.02.201 ...
  • (1991) James Brown - 20 All-Time Greatest Hits![FLAC (tracks+.cue) lossless ...
  • (2008) The Magic Of Nomads / Bulbul Zaman (folk-ethnic / smooth jazz / inst ...
  • (2010) Zaz / Zaz (Nu jazz, Chanson, Soul) [FLAC (tracks+.cue), lossless]
  • (2011) Adele / 21 (Jazz, Lounge, Easy Listening) [FLAC (tracks + .cue), los ...
  • (2011) Hugh Laurie / Let Them Talk (Blues, Jazz) [FLAC (tracks+.cue), lossl ...
  • (2012) Katie Melua / Secret Symphony (Jazz Pop, Vocal Jazz) [FLAC (tracks+. ...
  • (2012, Сборник) VA / Saxophone Golden Best (Jazz, Smooth Jazz) [FLAC (track ...
  • (2011, Сборник) VA / Lady Lounge (Chillout, Lounge, Downtempo) [FLAC (image ...
  • (2012) Sally Night / Love For Sale (Vocal Jazz) [FLAC (tracks+.cue), lossle ...
  • (2012, Сборник) VA / Verve Today 2012 (Mainstream Jazz, Vocal Jazz) [FLAC ( ...
  • (2011) Sam Levine / Smooth Sax Romance (Smooth Jazz) [FLAC (image+.cue), lo ...
  • (2012, Сборник) VA / Woman Trance Voices vol. 7 (4 CD) (Vocal, Progressive ...
  • (2010) Sade / Soldier Of Love ( jazz, soul, blues) [FLAC (tracks) lossless] ...
  • Информация
    Посетители, находящиеся в группе Гости, не могут оставлять комментарии к данной публикации.