вход на сайт

Имя пользователя :
Пароль :

Восстановление пароля Регистрация
(2012, Сборник) VA / Saxophone Golden Best (Jazz, Smooth Jazz) [FLAC (tracks+.cue), lossless]
Рейтинг:
(голосов: 1)



[img]{THEME}/images/logopost.png[/img]




Сборник
Исполнитель:Various Artists
Название сборника:Saxophone Golden Best
Год выпуска:2012
Жанр:Jazz, Smooth Jazz
Страна (Издатель, Каталожный номер): UK, Tune/051104
Аудиокодек: FLAC (*.flac)
Тип рипа: tracks+.cue
Битрейт: lossless
Продолжительность: 00:56:25



Tреклист:
01. Harlem Nocturne (3:03)
02. Danny Boy (3:43)
03. Laura (3:32)
04. Autumn Leaves (4:02)
05. I Left My Heart In San Francisco (4:45)
06. Broken Promises (3:41)
07. The Way We Were (2:45)
08. Moon River (3:05)
09. Summer Time (3:39)
10. Cant Help Falling In Love (3:05)
11. Help Me Make It Through The Night (4:11)
12. Tuff м (2:58)
13. My Way (4:46)
14. Just That Same Old Line (3:27)
15. Mea Culpa (3:17)
16. Mr. Lonely (2:26)

Лог создания рипа ▼Text
Exact Audio Copy V1.0 beta 3 from 29. August 2011

EAC extraction logfile from 19. June 2012, 13:21

Various Artists / Saxophone Golden Best

Used drive : HL-DT-STDVDRAM GH24LS70 Adapter: 1 ID: 1

Read mode : Secure
Utilize accurate stream : Yes
Defeat audio cache : Yes
Make use of C2 pointers : No

Read offset correction : 667
Overread into Lead-In and Lead-Out : No
Fill up missing offset samples with silence : Yes
Delete leading and trailing silent blocks : No
Null samples used in CRC calculations : Yes
Used interface : Native Win32 interface for Win NT & 2000
Gap handling : Appended to previous track

Used output format : User Defined Encoder
Selected bitrate : 896 kBit/s
Quality : High
Add ID3 tag : No
Command line compressor : C:Program Files (x86)Exact Audio CopyFlacflac.exe
Additional command line options : -8 -V -T "ARTIST=%artist%" -T "TITLE=%title%" -T "ALBUM=%albumtitle%" -T "DATE=%year%" -T "TRACKNUMBER=%tracknr%" -T "TOTALTRACKS=%numtracks%" -T "GENRE=%genre%" -T "ALBUM ARTIST=%albumartist%" -T "COMMENT=L2Bits, EAC V1.0 beta 3 Secure Mode, Test & Copy, AccurateRip, FLAC -8" %source%


TOC of the extracted CD

Track | Start | Length | Start sector | End sector
---------------------------------------------------------
1 | 0:00.00 | 3:02.48 | 0 | 13697
2 | 3:02.48 | 3:42.68 | 13698 | 30415
3 | 6:45.41 | 3:31.42 | 30416 | 46282
4 | 10:17.08 | 4:01.61 | 46283 | 64418
5 | 14:18.69 | 4:45.16 | 64419 | 85809
6 | 19:04.10 | 3:41.34 | 85810 | 102418
7 | 22:45.44 | 2:45.23 | 102419 |&nbs
378e1d68e40913e9d33c6bc0dd452344512c765e(2012, Сборник) VA / Saxophone Golden Best (Jazz, Smooth Jazz) [FLAC (tracks+.cue), lossless] (2012, Сборник) VA / Saxophone Golden Best (Jazz, Smooth Jazz) [FLAC (tracks+.cue), lossless] " />

Аплоадер: Админ, дата: 13-07-2012, 14:05, торрент скачан: 359 раз

Понравилась раздача? Посмотрите эти:
  • (2012) Lazlo / Lazlo (Electro Swing, Nu Jazz, Electronic) [FLAC (tracks+.cu ...
  • (2013) VA / Dalla in Jazz (Jazz, Vocal Jazz) [FLAC (tracks+.cue), lossless] ...
  • (2010) Zaz / Zaz (Nu jazz, Chanson, Soul) [FLAC (tracks+.cue), lossless]
  • (2011) Adele / 21 (Jazz, Lounge, Easy Listening) [FLAC (tracks + .cue), los ...
  • (2012) Katie Melua / Secret Symphony (Jazz Pop, Vocal Jazz) [FLAC (tracks+. ...
  • (2011) B.B. King / Icon (Blues) [FLAC (tracks+.cue), lossless]
  • (2012) Yiruma / Stay In Memory (New Age, Instrumental, Neoclassical, Piano) ...
  • (2012) Paul Van Dyk / Evolution (Progressive House, Trance) [FLAC (tracks+. ...
  • (2012) Marconi Union / Different Colours (Post Rock, Downtempo, Ambient) [F ...
  • (2008, Сборник) VA / Relax Piano - Yesterday - Trai Tim Mua Thu - Vol.7 (Ne ...
  • (2012) Tomandandy / Resident Evil: Retribution (Score, Soundtrack)[FLAC (tr ...
  • (2012) Sally Night / Love For Sale (Vocal Jazz) [FLAC (tracks+.cue), lossle ...
  • (2012) Shilts / All Grown Up (Smooth, Jazz-Pop) [FLAC (tracks+.cue), lossle ...
  • (1996) The Rasmus / Peep (Finnish Version) (Alternative Rock) [FLAC (tracks ...
  • (2012) Usher / Looking 4 Myself (Deluxe Version) (R&B, Soul) [FLAC (tracks+ ...
  • (2011) Mistabishi / Trip (Drum & Bass, Breakbeat) [FLAC (tracks+.cue), loss ...
  • (2011) Дельфин / Существо (Alternative|Experimental) [FLAC (tracks+.cue), l ...
  • (2012) Les Friction / Les Friction (Alt. Rock/Neo-Classical/Orchestral) [FL ...
  • (2011) SeeS / The enD (Progressive/Math Metal) [FLAC (tracks+.cue), lossles ...
  • (2012) Our Lady Peace / Curve (Alternative/Rock) [FLAC (tracks+.cue), lossl ...
  • (2012) Peter White / Here We Go (Smooth Jazz) [FLAC (tracks+.cue), lossles ...
  • (2012) Nine Lashes / World We View (Alt.Rock/Alt.Metal/Christian) [FLAC (tr ...
  • (2011) Phinehas / Thegodmachine (Metalcore) [FLAC (tracks+.cue), lossless]
  • (2011) Ink Stained Promises / Relations. (Metalcore, Hardcore) [FLAC (track ...
  • (2012) For Today / Immortal (Metalcore, Hardcore, Christian) [FLAC (tracks+ ...
  • Информация
    Посетители, находящиеся в группе Гости, не могут оставлять комментарии к данной публикации.