вход на сайт

Имя пользователя :
Пароль :

Восстановление пароля Регистрация
(2008, 3xCD Box Set) Nina Simone / To Be Free. The Nina Simone Story (Jazz, Soul, Vocal Jazz) [FLAC (image+.cue), lossless]
Рейтинг:
(голосов: 1)



[img]{THEME}/images/logopost.png[/img]




Nina Simone - To Be Free
The Nina Simone Story
Талантливая американская певица, пианистка, композитор и аранжировщица любила экспериментировать с множеством жанров от блюза, госпела и джаза до фолка, рока и world music. Новая коллекция "To Be Free: The Nina Simone Story" предлагает слушателю 51 композицию, приглашая исследовать историю музыкальных экспериментов певицы с 1957 по 1993 год.

Wiki | Last.Fm | Discogs | YouTubeИсполнитель: Nina Simone
Страна-производитель диска: Germany
Бокс Сет: To Be Free. The Nina Simone Story
Издатель (лейбл): RCA Legacy
Номер по каталогу: SS697 38192 2
Год выпуска: 2008
Жанр: Jazz, Soul, Vocal Jazz
Формат: FLAC
Тип рипа: image+.cue
Битрейт: Lossless
Лог-файлы: Присутствуют
Наличие сканов в содержимом раздачи: Да
Продолжительность: 03:53:03
CD #01 - The Nina Simone Story
Продолжительность: 01:17:15 ▼


Треклист :
[04:00] 01. Nina Simone - Mood Indigo
[04:08] 02. Nina Simone - I Loves You Porgy
[03:35] 03. Nina Simone - My Baby Just Cares For Me
[02:38] 04. Nina Simone - Nobody Knows You When Youre Down And Out
[05:54] 05. Nina Simone - You Can Have Him
[03:32] 06. Nina Simone - Wild Is The Wind
[05:33] 07. Nina Simone - Trouble In Mind
[05:38] 08. Nina Simone - When Malindy SingsSwing Low Sweet Chariot
[02:35] 09. Nina Simone - See Line Woman
[06:37] 10. Nina Simone - Pirate Jenny
[02:44] 11. Nina Simone - Dont Let Me Be Misunderstood
[02:33] 12. Nina Simone - I Put A Spell On You
[03:34] 13. Nina Simone - Ne Me Quitte Pas
[02:53] 14. Nina Simone - Feeling Good
[04:24] 15. Nina Simone - Four Women
[04:16] 16. Nina Simone - My Mans Gone Now
[03:08] 17. Nina Simone - I Wish I Knew How It Would Feel To Be Free
[02:37] 18. Nina Simone - To Love Somebody
[03:16] 19. Nina Simone - Sunday In Savannah
[03:32] 20. Nina Simone - Backlash Blues [2005 remix]
Отчет EAC ▼TextExact Audio Copy V0.99 prebeta 5 from 4. May 2009
Отчёт EAC об извлечении, выполненном 13. мая 2011, 6:57
Nina Simone / To Be Free: The Nina Simone Story.CD1.
Дисковод: SONY DVD RW AW-G170A Adapter: 0 ID: 2
Режим чтения : Достоверность
Использование точного потока : Да
Отключение кэша аудио : Да
Использование указателей C2 : Нет
Коррекция смещения при чтении : 48
Способность читать области Lead-in и Lead-out : Нет
Заполнение пропущенных сэмплов тишиной : Да
Удаление блоков с тишиной в начале и конце : Нет
При вычислениях CRC использовались нулевые сэмплы : Да
Интерфейс : Встроенный Win32-интерфейс для Win NT/2000
Выходной формат : Внутренние WAV-операции
Формат сэмплов : 44.100 Гц; 16 бит; стерео
TOC извлечённого CD
Трек | Старт | Длительность | Начальный сектор | Конечный сектор
---------------------------------------------------------------------
1 | 0:00.00 | 4:02.71 | 0 | 18220
2 | 4:02.71 | 4:10.40 | 18221 | 37010
3 | 8:13.36 | 3:38.09 | 37011 | 53369
4 | 11:51.45 | 2:39.50 | 53370 | 65344
5 | 14:31.20 | 5:56.17 | 65345 &n
b6a9d34504a84bfaddd1cf725aa68eb25c4ccdf1(2008, 3xCD Box Set) Nina Simone / To Be Free. The Nina Simone Story (Jazz, Soul, Vocal Jazz) [FLAC (image+.cue), lossless] (2008, 3xCD Box Set) Nina Simone / To Be Free. The Nina Simone Story (Jazz, Soul, Vocal Jazz) [FLAC (image+.cue), lossless] " />

Аплоадер: Админ, дата: 1-07-2012, 14:18, торрент скачан: 359 раз

Понравилась раздача? Посмотрите эти:
  • (2013, Сборник) VA / LateNightTales: Bonobo (Soul, Chillout, Downtempo) [mp ...
  • (2013) Au Revoir Simone / Move In Spectrums (Indie Pop / Electronic / Dream ...
  • (2013) АэМ / Студенческий (Rap, Reggae) [MP3, 320/CBR]
  • (2013, Сборник) VA / Verve Remixed: The First Ladies (House, Trap, Techno, ...
  • Sunrise Inc / Nina [2011, Pop, HDRip]
  • ( 2009, OST) VA Watchmen / Хранители { MP3, 320CBR } [ WazZzuP ]
  • (2010) VA / Repo Men / Потрошители (OST,Саундтрек) [MP3 320/CBR]
  • (2008, Сборник) VA / Секс в большом городе / Sex and the city (Soundtrack) ...
  • (Дискография) Nina Simone (Soul Jazz) [MP3 320/CBR]
  • (2011, сборник) VA / Christmas Duets (Pop) [Mp3, 320/CBR]
  • (2011, сборник) VA / OST Неприкасаемые / Intouchables (Soundtrack) [MP3, 32 ...
  • (2012) Gare Du Nord / Lifesexy (Jazz Pop, Lounge, Acid Jazz) [Mp3 (tracks), ...
  • (2012, сборник) VA / Кухня 2012 (Soundtrack) [MP3, 128-256/CBR]
  • (2004, сборник ) VA / Фестиваль Авторадио - Дискотека 80-Х часть 1 (РОР) [ ...
  • (2002, Сборник) VA / The Very Best Of Smooth Jazz (2 CD) (Smooth Jazz, Sou ...
  • (1995) The Gary Tesca Orchestra / Amor amor - The Julio Iglesias Story (Pop ...
  • Apocalyptica feat. Nina Hagen / Seemann [2003,Metal,DVDRip]
  • Sunrise Inc / Nina [2012, Dance, HDRip]
  • ( 2005, OST) VA Фаренгейт: Пророчество Индиго / Fahrenheit: Indigo Prophecy ...
  • Нина Добрев/ Nina Dobrev(Сериал Дневники Вампира) / Звезды/ Jpeg / 288x400 ...
  • Воин дорог / Downstream (Simone Bartesaghi, Филлип Ким, Нил Кинселла, фанта ...
  • Воин дорог / Downstream (Simone Bartesaghi, Филлип Ким, Нил Кинселла, фанта ...
  • (2011) VA / Vintage Lounge (Lounge, Chillout) [MP3, 239/VBR]
  • Mizz Nina feat. Flo Rida / Take Over [2011, Pop, HDRip]
  • (2012) Adam Gontier / Live In San Diego (Alt. Rock / Acoustic) [MP3, 192/С ...
  • Информация
    Посетители, находящиеся в группе Гости, не могут оставлять комментарии к данной публикации.