вход на сайт

Имя пользователя :
Пароль :

Восстановление пароля Регистрация
(2002, 4xCD Box Set) B.B. King / The Vintage Years (Modern Electric Blues, Soul-Blues) [FLAC (tracks+.cue), lossless]
Рейтинг:
(голосов: 1)



[img]{THEME}/images/logopost.png[/img]




B.B. King
The Vintage Years

B. B. King - американский блюзовый гитарист, певец, автор песен, которого поклонники именуют королём блюза. Шумное одобрение критиков и широкая известность принесли ему славу наиболее уважаемого, успешного, узнаваемого блюзмена не только в США, но и по всему миру. По результатам проведенного в 2003 году журналом Rolling Stone опроса Би Би Кинг находится на 3 месте в списке «100 лучших гитаристов всех времен» и величайшим в списке ныне живущих.
Wiki | Last.Fm | Discogs | YouTubeИсполнитель: B.B. King
Страна-производитель диска: EU
Бокс Сет: The Vintage Years
Издатель (лейбл): ACE
Номер по каталогу: ABOXCD 8
Год выпуска: 2002
Жанр: Modern Electric Blues, Soul-Blues
Аудио кодек: FLAC
Тип рипа: tracks+.cue
Битрейт: Lossless
Лог-файлы: Присутствуют
Наличие сканов в содержимом раздачи: Да
Продолжительность: 05:11:09
CD #01 - The Great B.B
Формат: FLAC (tracks+.cue)
Продолжительность: 01:17:20 ▼


Треклист :
[03:03] 01. King B.B. - 3 OClock Blues
[03:05] 02. King B.B. - You Know I Love You
[02:58] 03. King B.B. - Woke Up This Morning
[02:51] 04. King B.B. - Please Love Me
[03:05] 05. King B.B. - Blind Love
[03:03] 06. King B.B. - You Upset Me Baby
[02:50] 07. King B.B. - Every Day I Have The Blues
[02:50] 08. King B.B. - Ten Long Years
[03:02] 09. King B.B. - Crying Won`t Help You
[02:35] 10. King B.B. - Did You Ever Love A Woman
[02:56] 11. King B.B. - Bad Luck
[03:04] 12. King B.B. - Sweet Little Angel
[02:53] 13. King B.B. - Why I Sing The Blues
[02:51] 14. King B.B. - Worry Worry
[06:21] 15. King B.B. - Sweet Sixteen (Pt. 1 & 2)
[03:41] 16. King B.B. - My Own Fault (Aka Its My Fault)
[02:50] 17. King B.B. - Good Man Gone Bad
[02:45] 18. King B.B. - Ill Survive
[03:47] 19. King B.B. - Walking Dr. Bill
[04:18] 20. King B.B. - Youre Breaking My Heart
[02:59] 21. King B.B. - Gonna Miss You Around Here
[03:16] 22. King B.B. - Downhearted (Aka How Blue Can You Get)
[03:06] 23. King B.B. - Aint Nobodys Business
[03:00] 24. King B.B. - Rock Me Baby
Отчет EAC ▼TextExact Audio Copy V0.99 prebeta 4 from 23. January 2008
EAC extraction logfile from 17. June 2009, 22:44
King B.B. / the vintage years disk1
Used drive : PLEXTOR CD-R PX-230A Adapter: 1 ID: 1
Read mode : Secure
Utilize accurate stream : Yes
Defeat audio cache : Yes
Make use of C2 pointers : No
Read offset correction : 738
Overread into Lead-In and Lead-Out : No
Fill up missing offset samples with silence : Yes
Delete leading and trailing silent blocks : No
Null samples used in CRC calculations : Yes
Used interface : Installed external ASPI interface
Gap handling : Appended to previous track
Used output format : User Defined Encoder
Selected bitrate : 1024 kBit/s
Quality : High
Add ID3 tag : Yes
Command line compressor : C:Program FilesExact Audio Copy1FLACFLAC.EXE
Additional command line options : -6 -V -T "ARTIST=%a" -T "TITLE=%t" -T "ALBUM=%g" -T "DATE=%y" -T "TRACKNUMBER=%n" -T "GENRE=%m" -T "COMMENT=%e" %s -o %d
TOC of the extracted CD
Track | Start | Length | Start sector | End sector
---------------------------------------------------------
1 | 0:00.00 | 3:03.46 | 0 | 13770
2 | 3:03.46 | 3:05.29 | 13771 | 27674
3 | 6:09.00 | 2:58.01 | 27675 | 41025
4 | 9:07.01 | 2:51.05 | 41026 | 53855
5 | 11:58.06 | 3:05.71 | 53856 | 67801
6 | 15:04.02 | 3:03.27 | 67802 | 81553
7 | 18:07.29 | 2:50.69 | 81554 | 94372
8 | 20:58.23 | 2:50.51 | 94373 | 107173
9 | 23:48.74 | 3:02.06 | 107174 | 120829
10 | 26:51.05 | 2:35.34 | 120830 | 132488
11 | 29:26.39 | 2:56.67 | 132489 | 145755
12 | 32:23.31 | 3:04.20 | 145756 | 159575
13 | 35:27.51 | 2:53.65 | 159576 | 172615
14 | 38:21.41 | 2:51.65 | 172616 | 185505
15 | 41:13.31 | 6:21.06 | 185506 | 214086
16 | 47:34.37 | 3:41.47 | 214087 | 230708
17 | 51:16.09 | 2:50.35 | 230709 | 243493
18 | 54:06.44 | 2:45.15 | 243494 | 255883
19 | 56:51.59 | 3:47.19 | 255884 | 272927
20 | 6
c4197da875c459002129f5a8a0c916c71efd7245(2002, 4xCD Box Set) B.B. King / The Vintage Years (Modern Electric Blues, Soul-Blues) [FLAC (tracks+.cue), lossless] (2002, 4xCD Box Set) B.B. King / The Vintage Years (Modern Electric Blues, Soul-Blues) [FLAC (tracks+.cue), lossless] " />

Аплоадер: Админ, дата: 20-06-2012, 05:18, торрент скачан: 359 раз

Понравилась раздача? Посмотрите эти:
  • (2013) The Holmes Brothers / Brotherhood (Modern Electric Blues, Soul, Gosp ...
  • (2013) Buddy Guy / Rhythm & Blues (2CD) (Blues) [FLAC (image+.cue), Lossles ...
  • (2013) Innes Sibun / Lost In The Wilderness (Blues Rock, Rock) [FLAC (image ...
  • (2013) The Hamburg Blues Band / Friends For A LIVEtime (Blues Rock, Rock) [ ...
  • (2010, 3CD) Ten Years After / Think About the Times. The Chrysalis Years 19 ...
  • (2012, Сборник) VA / Vintage Cafe 1,2 (4xCD) (Lounge, Lo-Fi, Jazz Blends) [ ...
  • (2013) Jimi Hendrix / People, Hell and Angels (Psychedelic Rock, Blues Rock ...
  • (Дискография) B. B. King (Blues) [MP3/WMA, 128-320/CBR, 124-316/VBR] [part ...
  • (2003 Сборник) Kana King & His Hawaiians / The music of Hawaii (Hawaii Ethn ...
  • (2011) B.B. King / Icon (Blues) [MP3, 320 kbps/CBR]
  • (2012) King Imagine & Pankifared / Episodes (Modern Classical) [MP3, 320 kb ...
  • (2012) Richard Newell / Richard Newell aka King Biscuit Boy (Modern Electri ...
  • (2010) Zaz / Zaz (Nu jazz, Chanson, Soul) [FLAC (tracks+.cue), lossless]
  • (2008) Adele / 19 {2CD EXPANDED EDITION} (Blues / Funk / Gospel) [FLAC (tra ...
  • (2011) Sade / The Ultimate Collection ( Soul, Smooth-Jazz, Pop) [FLAC (trac ...
  • (2011) Hugh Laurie / Let Them Talk (Blues, Jazz) [FLAC (tracks+.cue), lossl ...
  • (2010, 5CDs Box-set) Various Artists / 100 Hits - Christmas Legends (Big Ba ...
  • (2011) B.B. King / Icon (Blues) [FLAC (tracks+.cue), lossless]
  • (2012) Mark Lanegan Band / Blues Funeral (Alternative Rock/Blues Rock) [FLA ...
  • (1998) Roomful of Blues / There Goes The Neighborhood (Jump / Modern Electr ...
  • (1991, 4xCD Box Set) James Brown / Star Time (Funk, Soul, Blues, Disco) [FL ...
  • (2012) Alicia Keys / Girl On Fire (R&B) [FLAC (tracks+.cue), lossless]
  • (2003, сборник) B.B.King - Big Blues Collection (Jazz/Blues)[MP3 320CBR]
  • (2012) Buckethead / Electric Sea (Experimental/Acoustic/Ambient/Rock) [FLAC ...
  • (2012) For Today / Immortal (Metalcore, Hardcore, Christian) [FLAC (tracks+ ...
  • Информация
    Посетители, находящиеся в группе Гости, не могут оставлять комментарии к данной публикации.