вход на сайт

Имя пользователя :
Пароль :

Восстановление пароля Регистрация
(2012) Norah Jones / Little Broken Hearts (Vocal Jazz, Alternative Rock) [FLAC (tracks+.cue), lossless]
Рейтинг:
(голосов: 1)



[img]{THEME}/images/logopost.png[/img]



Исполнитель: Norah Jones
Альбом: Little Broken Hearts
Страна: USA
Тип альбома: Студийный
Год выпуска: 2012
Жанр: Vocal Jazz, Alternative Rock
Формат: FLAC (tracks+.cue)
Битрейт: lossless
Log-файл: Присутствует.
Продолжительность: 00:45:01


Tреклист:
01. Norah Jones - Good Morning [03:17]
02. Norah Jones - Say Goodbye [03:27]
03. Norah Jones - Little Broken Hearts [03:12]
04. Norah Jones - Shes 22 [03:10]
05. Norah Jones - Take It Back [04:06]
06. Norah Jones - After The Fall [03:42]
07. Norah Jones - 4 Broken Hearts [02:59]
08. Norah Jones - Travelin On [03:06]
09. Norah Jones - Out On The Road [03:28]
10. Norah Jones - Happy Pills [03:34]
11. Norah Jones - Miriam [04:25]
12. Norah Jones - All A Dream [06:29]

Лог создания рипа ▼TextX Lossless Decoder version 20120407 (140.0)

XLD extraction logfile from 2012-04-23 07:20:21 -0700

Norah Jones / Little Broken Hearts

Used drive : TSSTcorp CDDVDW SH-S223L (revision SB03)

Ripper mode : CDParanoia III 10.2
Disable audio cache : OK for the drive with a cache less than 2750KiB
Make use of C2 pointers : NO
Read offset correction : 6
Max retry count : 20
Gap status : Analyzed, Appended

TOC of the extracted CD
Track | Start | Length | Start sector | End sector
---------------------------------------------------------
1 | 00:00:00 | 03:17:55 | 0 | 14829
2 | 03:17:55 | 03:27:34 | 14830 | 30388
3 | 06:45:14 | 03:12:16 | 30389 | 44804
4 | 09:57:30 | 03:10:60 | 44805 | 59114
5 | 13:08:15 | 04:06:25 | 59115 | 77589
6 | 17:14:40 | 03:42:21 | 77590 | 94260
7 | 20:56:61 | 02:59:68 | 94261 | 107753
8 | 23:56:54 | 03:06:58 | 107754 | 121761
9 | 27:03:37 | 03:28:64 | 121762 | 137425
10 | 30:32:26 | 03:34:51 | 137426 | 153526
11 | 34:07:02 | 04:25:08 | 153527 | 173409
12 | 38:32:10 | 06:29:41 | 173410 | 202625

AccurateRip Summary
Disc not found in AccurateRip DB.

All Tracks
Album gain : -7.25 dB
Peak : 0.991486
Statistics
Read error : 0
Skipped (treated as error) : 0
Edge jitter error (maybe fixed) : 1
Atom jitter error (maybe fixed) : 1
Drift error (maybe fixed) : 0
Dropped bytes error (maybe fixed) : 0
Duplicated bytes error (maybe fixed) : 0

Track 01
Filename : /Volumes/4GIG /Nora
5bbcd1a6f682eae26d38abca39aaa850a9cb67e5(2012) Norah Jones / Little Broken Hearts (Vocal Jazz, Alternative Rock) [FLAC (tracks+.cue), lossless] (2012) Norah Jones / Little Broken Hearts (Vocal Jazz, Alternative Rock) [FLAC (tracks+.cue), lossless] " />

Аплоадер: Админ, дата: 5-05-2012, 16:20, торрент скачан: 359 раз

Понравилась раздача? Посмотрите эти:
  • (2013) Billie Joe Armstrong & Norah Jones/ Foreverly (Folk Rock) [MP3, 188 ...
  • (2013) Kanye West | Yeezus (Rap|Experimental Hip-Hop) [FLAC (tracks+.cue), ...
  • (Дискография, 2009-2013) The Lonely Island / 3 Альбома (Rap/Hip-Hop) FLAC ( ...
  • (2012) The Lumineers / The Lumineers (Indie-folk, Folk-rock) [FLAC (tracks+ ...
  • (2012) Владимир Кузьмин / Endorfin (Русский Рок) [FLAC (image+.cue), lossle ...
  • (2002-2008) NORAH JONES - 4 альбома (Vocal Jazz / Blues) [MP3 192/320CBR]
  • (2002) Roy Jones Jr / Round One: The Album (Rap) [MP3, 192/CBR ]
  • (2011) Danger Mouse & Daniele Luppi with Jack White & Norah Jones / Rome (I ...
  • (2012) Norah Jones / Little Broken Hearts (Vocal Jazz, Alternative Rock) [M ...
  • (2012) Norah Jones / Lucca Summer Festival (Blues, Contemporary Jazz, Vocal ...
  • (2010) Katie Melua / The House ( jazz-pop, vocal jazz) [FLAC (tracks + .cu ...
  • (2011) Moby / Destroyed (Electronic, Downtempo, Ambient) [FLAC (tracks+.cue ...
  • (2010) Sungha Jung / Perfect Blue (Acoustic, Fingerstyle Guitar) [FLAC (tra ...
  • (2012) Bruce Springsteen / Wrecking Ball (Folk Rock) [FLAC (tracks+.cue),l ...
  • (2012) Hans Zimmer / The Dark Knight Rises (Film score) [FLAC (tracks+.cu ...
  • (2012, Сборник) VA / Vintage Lounge (2 CD) (Lounge, Downtempo, Lo-Fi) [FLA ...
  • (2012) Mouse On Mars / Parastrophics (Leftfield, Abstract, Rhythmic Noise, ...
  • (2012) Linkin Park / LP Underground 12 (Alternative Rock) [FLAC (tracks+.cu ...
  • (2010) Enduser / 1-3 (DnB, Dubstep, Breakcore) [FLAC (tracks+.cue), lossles ...
  • (2012) Lana Del Rey / Born To Die (Indie Pop) [FLAC (tracks+.cue), lossless ...
  • (2012) The Fray / Scars & Stories (Alternative/Rock/Piano Rock) [FLAC (trac ...
  • (2012) Unheilig / Lichter der Stadt (Limited Edition, 2CD) (Industrial, Got ...
  • (2012) Young Guns / Bones (Alternative Rock) [FLAC (tracks +.cue), lossless ...
  • (2012) Switchfoot / Vice Re-Verses (Remixes) (Alternative, Christian Rock, ...
  • (2011) 7eventh Time Down / Alive In You (Alternative Rock/Modern Rock/Chris ...
  • Информация
    Посетители, находящиеся в группе Гости, не могут оставлять комментарии к данной публикации.