вход на сайт

Имя пользователя :
Пароль :

Восстановление пароля Регистрация
(1998) Roomful of Blues / There Goes The Neighborhood (Jump / Modern Electric Blues) [FLAC (image+.сue) lossless]
Рейтинг:
(голосов: 1)



[img]{THEME}/images/logopost.png[/img]



Исполнитель Roomful of Blues
Альбом: There Goes The Neighborhood
Тип альбома: Студийный
Год выпуска: 1998
Жанр: Jump / Modern Electric Blues
Формат: FLAC (image+.сue)
Битрейт: lossless
Log-файл: Присутствует
Продолжительность: 00:44:57

Tреклист:
1. Backseat Blues (Odom) [4:36]
2. There Goes the Neighborhood (Cate, Cate, Preston) [4:39]
3. Just Like Dynamite (Vachon) [4:22]
4. Lost Mind (Mayfield) [4:06]
5. I Tried (Davis, Robey, Scott) [3:52]
6. Rocks in My Bed (Ellington [5:02]
7. Shes Mine (Bramhall, Bramhall) [2:47]
8. I Smell Trouble (Robey) [6:28]
9. Blue, Blue World (Vachon) [3:30]
10. The Comeback (Chatman, Memphis Slim) [5:32]

Лог создания рипа ▼TextExact Audio Copy V0.99 prebeta 5 from 4. May 2009

EAC extraction logfile from 21. July 2010, 9:54

Roomful of Blues / There Goes The Neighborhood

Used drive : HL-DT-STDVDRAM GSA-H60N Adapter: 3 ID: 0

Read mode : Secure
Utilize accurate stream : Yes
Defeat audio cache : Yes
Make use of C2 pointers : No

Read offset correction : 667
Overread into Lead-In and Lead-Out : No
Fill up missing offset samples with silence : Yes
Delete leading and trailing silent blocks : No
Null samples used in CRC calculations : Yes
Used interface : Native Win32 interface for Win NT & 2000

Used output format : User Defined Encoder
Selected bitrate : 1024 kBit/s
Quality : High
Add ID3 tag : No
Command line compressor : C: Program FilesExact Audio CopyFLACFLAC.EXE
Additional command line options : -6 -V -T "ARTIST=%a" -T "TITLE=%t" -T "ALBUM=%g" -T "DATE=%y" -T "TRACKNUMBER=%n" -T "GENRE=%m" -T "COMMENT=%e" %s -o %d


TOC of the extracted CD

Track | Start | Length | Start sector | End sector
---------------------------------------------------------
1 | 0:00.00 | 4:36.40 | 0 | 20739
2 | 4:36.40 | 4:39.02 | 20740 | 41666
3 | 9:15.42 | 4:22.25 | 41667 | 61341
4 | 13:37.67 | 4:06.18 | 61342 | 79809
5 | 17:44.10 | 3:51.52 | 79810 | 97186
6 | 21:35.62 | 5:02.60 | 97187 | 119896
7 | 26:38.47 | 2:47.23 | 119897 | 132444
8 | 29:25.70 | 6:28.35 | 132445 | 161579
9 | 35:54.30 | 3:31.10 | 161580 | 177414
10 | 39:25.40 | 5:32.05 | 177415 | 202319


Range status and errors

S
b0a75bc1a210ac9cada9f5ea83d32a92765a719e(1998) Roomful of Blues / There Goes The Neighborhood (Jump / Modern Electric Blues) [FLAC (image+.сue) lossless] (1998) Roomful of Blues / There Goes The Neighborhood (Jump / Modern Electric Blues) [FLAC (image+.сue) lossless] " />

Аплоадер: Админ, дата: 14-04-2012, 05:08, торрент скачан: 359 раз

Понравилась раздача? Посмотрите эти:
  • (1996) George Michael / Older (1st Press Japan) (Electronic, Pop/Rock) [FLA ...
  • (2013) The Holmes Brothers / Brotherhood (Modern Electric Blues, Soul, Gosp ...
  • (2013) Dave Meniketti (Y&T - Yesterday & Today) / On The Blue Side (1999) ( ...
  • (2013) Buddy Guy / Rhythm & Blues (2CD) (Blues) [FLAC (image+.cue), Lossles ...
  • (2013) Innes Sibun / Lost In The Wilderness (Blues Rock, Rock) [FLAC (image ...
  • (2013) The Hamburg Blues Band / Friends For A LIVEtime (Blues Rock, Rock) [ ...
  • (2013) Leslie West / Still Climbing (Rock, Hard Rock, Blues Rock) [FLAC (im ...
  • (2013) Paul McCartney / New (Deluxe Edition) (Rock) [FLAC (image,+.cue), lo ...
  • (2013) Govt Mule / Shout! (2CD) (Blues Rock) [FLAC (image+.cue), Lossless]
  • (2010, 3CD) Ten Years After / Think About the Times. The Chrysalis Years 19 ...
  • (2013) Jimi Hendrix / People, Hell and Angels (Psychedelic Rock, Blues Rock ...
  • (2010) Zaz / Zaz (Nu jazz, Chanson, Soul) [FLAC (tracks+.cue), lossless]
  • (2011) Hugh Laurie / Let Them Talk (Blues, Jazz) [FLAC (tracks+.cue), lossl ...
  • (2011) The Prodigy / Worlds On Fire (Big Beat, Rave) [FLAC (image+.cue), lo ...
  • (2011) Daughtry / Break the Spell (Deluxe Edition) (Alt. Rock / Modern Rock ...
  • (2011) Linkin Park / LP Underground 11 (Alternative Rock) [FLAC (Image+cue) ...
  • (Дискография, 1988-2011) Kingdom Come (Hard&Heavy,Glam Metal) [FLAC (image+ ...
  • (2012) Katie Melua / Secret Symphony (Jazz Pop, Vocal Jazz) [FLAC (tracks+. ...
  • (2011) B.B. King / Icon (Blues) [FLAC (tracks+.cue), lossless]
  • (2012) Mark Lanegan Band / Blues Funeral (Alternative Rock/Blues Rock) [FLA ...
  • (2011) Rammstein / Mein Land (Neue Deutsche Harte, Industrial, Tanz-Metal) ...
  • (2011) Ленинград / Хна (Rock) [FLAC (tracks+.cue), lossless]
  • (2012) Buckethead / Electric Sea (Experimental/Acoustic/Ambient/Rock) [FLAC ...
  • (2011) Volumes / Via (Progressive Metalcore/Math Metal) [FLAC (image+.cue), ...
  • (2012) Game Over / For Humanity (Thrash Metal) [FLAC (image+.cue), lossless ...
  • Информация
    Посетители, находящиеся в группе Гости, не могут оставлять комментарии к данной публикации.