вход на сайт

Имя пользователя :
Пароль :

Восстановление пароля Регистрация
(Дискография, 1980-2009) The Robert Cray Band (Blues) [APE (image+.cue), lossless]
Рейтинг:
(голосов: 1)



[img]{THEME}/images/logopost.png[/img]



The Robert Cray Band - Studio Discography
Исполнитель: The Robert Cray Band
Год выпуска: 1980-2009
Жанр: Blues
Формат: APE (image+.cue)
Битрейт: lossless
Log-файл: Присутствует
Продолжительность: 11:51:41
Об исполнителе:Роберт КРЕЙ - Американский популярный блюзовый певец, гитарист; обладатель четырех премий "Грэмми" (Grammy) в категории "современный блюз" и многократный лауреат основной блюзовой премии - имени В.К.Хэнди.
Родился в семье военнослужащего. В детстве учился игре на фортепиано. Как музыкант сформировался под влиянием записей Рея Чарлза (Ray Charles), Сэма Кука (Sam Cooke) и других представителей "соул". В конце 60-х под влиянием групп "британского вторжения" и "Битлз" в первую очередь, играл на гитаре в рок-группах. Под впечатлением от личной встречи с Албертом Коллинзом (Albert Collins) заинтересовался исполнением блюза.

1980 - Too Many Cooks (aka Whos Been Talkin): ▼

Номер по каталогу: R2 70381
Продолжительность: 35:45.48

Треклист:
01. Too Many Cooks [0:02:50.06]
02. The Score [0:04:08.04]
03. When The Welfare Turns Its Back On You [0:03:21.42]
04. Thats What Ill Do [0:02:38.26]
05. Id Rather Be A Wino [0:04:49.70]
06. Whos Been Talkin [0:03:45.82]
07. Sleeping In The Ground [0:03:21.40]
08. Im Gonna Forget About You [0:03:11.37]
09. Nice As A Fool Can Be [0:03:14.46]
10. If Youre Thinkin What Im Thinkin [0:04:24.89]

Лог создания рипа ▼TextExact Audio Copy V1.0 beta 3 from 29. August 2011

Отчёт EAC об извлечении, выполненном 10. октября 2011, 21:40

The Robert Cray Band / Too Many Cooks

Дисковод: SONY CD-RW CRX230ED Adapter: 0 ID: 1

Режим чтения : Достоверность
Использование точного потока : Да
Отключение кэша аудио : Да
Использование указателей C2 : Нет

Коррекция смещения при чтении : 6
Способность читать области Lead-in и Lead-out : Нет
Заполнение пропущенных сэмплов тишиной : Да
Удаление блоков с тишиной в начале и конце : Нет
При вычислениях CRC использовались нулевые сэмплы : Да
Интерфейс : Установленный внешний ASPI-интерфейс

Выходной формат : Внутренние WAV-операции
Формат сэмплов : 44.100 Гц; 16 бит; стерео

TOC извлечённого CD

Трек | Старт | Длительность | Начальный сектор | Конечный сектор
---------------------------------------------------------------------
1 | 0:00.32 | 2:50.05 | 32 | 12786
2 | 2:50.37 | 4:08.03 | 12787 | 31389
3 | 6:58.40 | 3:21.32 | 31390 | 46496
4 | 10:19.72 | 2:38.20 | 46497 | 58366
5 | 12:58.17 | 4:49.53 | 58367 | 80094
6 | 17:47.70 | 3:45.62 | 80095 | 97031
7 | 21:33.57 | 3:21.30 | 97032 | 112136
8 | 24:55.
6a305da9419b51b0e89917673c9b14d19dff4224(Дискография, 1980-2009) The Robert Cray Band (Blues) [APE (image+.cue), lossless] (Дискография, 1980-2009) The Robert Cray Band (Blues) [APE (image+.cue), lossless] " />

Аплоадер: Админ, дата: 2-04-2012, 12:50, торрент скачан: 359 раз

Понравилась раздача? Посмотрите эти:
  • (2009) Воскресение / The Best (Rock ) [APE (image + .cue), lossless]
  • (2012) Григорий Лепс / Полный вперёд (Шансон) [FLAC (image+.cue), Lossless ...
  • (2004) ELLA FITZGERALD - The Best Of Ella Fitzgerald - Summertime(Vocal Jaz ...
  • (дискография, 1983-2008) MADONNA (pop / dance) [WavPack (image+.cue) lossle ...
  • (2000) Tic Tac Toe / Ist der Ruf erst ruiniert... (Rap,Hip-hop) [Lossless, ...
  • (2010) ST1M / Октябрь (Rap) [APE(image+.cue), lossless]
  • (2010) ДиДюЛя / Аромат (flamenco, instrumental, folk) [APE (image + .cue), ...
  • (2011) Blues Cousins / KGB Blues (Blues Rock) [FLAC (image+.cue), lossless] ...
  • (2011) АукцЫон / Юла (Rock) [APE (image+.cue), lossless]
  • (Дискография, 1977-1980) Fandango (R&B, Melodic Hard Rock, Electric Pop Roc ...
  • (Дискография, 1983-1997) Stevie Ray Vaughan (Blues) [APE (image+.cue), loss ...
  • (2012) The Blues Overdrive / The Blues Overdrive (Blues-Rock) [FLAC (image+ ...
  • (2009) Rihanna / Rated R (R`n`B) [APE (image+.cue)]
  • (2009, Cборник) Madonna / Greatest Hits [CD1 + CD2] (Pop) [APE (image+.cue) ...
  • (2011) N1NT3NDO / N1NT3NDO (Rap) [APE (image+.сue), lossless]
  • (Дискография, 2005-2008) Ёлка (R&B, Reggae, Pop) [APE (image+.cue); FLAC (i ...
  • (1988) Fausto Papetti / Grand Collection (POP, Jazz) [FLAC (image+.cue), lo ...
  • (1995) Steve Morse Band / Structural Damage (Instrumental Rock/Blues Rock/J ...
  • (2008) Студия 80 / Придуманный Мир (Pop) [FLAC (image+.cue), lossless]
  • (2012) Don Ray Band / Full Throttle (Blues, Blues-Rock) [APE (image+.cue), ...
  • Информация
    Посетители, находящиеся в группе Гости, не могут оставлять комментарии к данной публикации.