вход на сайт

Имя пользователя :
Пароль :

Восстановление пароля Регистрация
(Дискография, 1983-1997) Stevie Ray Vaughan (Blues) [APE (image+.cue), lossless]
Рейтинг:
(голосов: 1)



[img]{THEME}/images/logopost.png[/img]



Stevie Ray Vaughan - Discography
Исполнитель: Stevie Ray Vaughan
Год выпуска: 1983-1997
Жанр: Blues
Формат: APE (image+.cue)
Битрейт: lossless
Log-файл: Присутствует
Продолжительность: 06:47:28

Studio
1983 - Stevie Ray Vaughan And Double Trouble - Texas Flood: ▼

Номер по каталогу: EPC 46095 2
Продолжительность: 0:38:50

Треклист:
01. Love Struck Baby [0:02:23]
02. Pride And Joy [0:03:40]
03. Texas Flood [0:05:21]
04. Tell Me [0:02:49]
05. Testify [0:03:25]
06. Rude Mood [0:04:40]
07. Mary Had A Little Lamb [0:02:47]
08. Dirty Pool [0:05:02]
09. Im Cryin [0:03:42]
10. Lenny [0:04:57]

Лог создания рипа ▼TextExact Audio Copy V0.99 prebeta 5 from 4. May 2009

Отчёт EAC об извлечении, выполненном 22. декабря 2010, 17:19

Stevie Ray Vaughan And Double Trouble / Texas Flood

Дисковод: TEAC CD-W552G Adapter: 1 ID: 1

Режим чтения : Достоверность
Использование точного потока : Да
Отключение кэша аудио : Да
Использование указателей C2 : Нет

Коррекция смещения при чтении : 6
Способность читать области Lead-in и Lead-out : Нет
Заполнение пропущенных сэмплов тишиной : Да
Удаление блоков с тишиной в начале и конце : Нет
При вычислениях CRC использовались нулевые сэмплы : Да
Интерфейс : Установленный внешний ASPI-интерфейс

Выходной формат : Внутренние WAV-операции
Формат сэмплов : 44.100 Гц; 16 бит; стерео

TOC извлечённого CD

Трек | Старт | Длительность | Начальный сектор | Конечный сектор
---------------------------------------------------------------------
1 | 0:00.00 | 2:23.70 | 0 | 10794
2 | 2:23.70 | 3:40.42 | 10795 | 27336
3 | 6:04.37 | 5:21.33 | 27337 | 51444
4 | 11:25.70 | 2:49.12 | 51445 | 64131
5 | 14:15.07 | 3:25.25 | 64132 | 79531
6 | 17:40.32 | 4:40.33 | 79532 | 100564
7 | 22:20.65 | 2:47.10 | 100565 | 113099
8 | 25:08.00 | 5:02.70 | 113100 | 135819
9 | 30:10.70 | 3:42.07 | 135820 | 152476
10 | 33:53.02 | 4:57.23 | 152477 | 174774

Характеристики диапазона извлечения и сообщения об ошибках

Выбранный диапазон

Имя файла D:MusicCDTorrentStevie Ray Vaughan And Double Trouble - Texas FloodStevie Ray Vaughan And Double Trouble - Texas Flood.wav

Пиковый уровень 100.0 %
Качество диап
16ad9caf959d568503bae9db116e81d0ff793bcb(Дискография, 1983-1997) Stevie Ray Vaughan (Blues) [APE (image+.cue), lossless] (Дискография, 1983-1997) Stevie Ray Vaughan (Blues) [APE (image+.cue), lossless] " />

Аплоадер: Админ, дата: 30-03-2012, 20:16, торрент скачан: 359 раз

Понравилась раздача? Посмотрите эти:
  • (2012) Григорий Лепс / Полный вперёд (Шансон) [FLAC (image+.cue), Lossless ...
  • (2010) Stevie Ray Vaughan & Double Trouble / Couldnt Stand The Weather (Blu ...
  • (2004) ELLA FITZGERALD - The Best Of Ella Fitzgerald - Summertime(Vocal Jaz ...
  • (дискография, 1983-2008) MADONNA (pop / dance) [WavPack (image+.cue) lossle ...
  • (1993) ЖАННА АГУЗАРОВА И «БРАВО» — Жанна Агузарова и «Браво» 1983—1988 (Roc ...
  • (2000) Tic Tac Toe / Ist der Ruf erst ruiniert... (Rap,Hip-hop) [Lossless, ...
  • (2008) НоГГано / Первый (Rap) [APE(image+cue), lossless]
  • (2004) VA / Инструментальная музыка - Лучшие мировые хиты Vol.7 (2CD) (Inst ...
  • (2010) ST1M / Октябрь (Rap) [APE(image+.cue), lossless]
  • (2010) ДиДюЛя / Аромат (flamenco, instrumental, folk) [APE (image + .cue), ...
  • (2011) Within Temptation / The Unforgiving (Symphonic Gothic Metal) [FLAC ( ...
  • (2011) VA / Bar Jazz (Swing, Vocal Jazz, Trad Jazz) [FLAC (image+.cue), los ...
  • (2011) АлисА / 20.12 (Русский Рок) [WavPack (image+.cue), lossless]
  • (2011) Blues Cousins / KGB Blues (Blues Rock) [FLAC (image+.cue), lossless] ...
  • (2011) АукцЫон / Юла (Rock) [APE (image+.cue), lossless]
  • (Дискография, 1986 - 1999) Crimson Glory (Progressive Heavy Metal) [FLAC (i ...
  • (2012) The Blues Overdrive / The Blues Overdrive (Blues-Rock) [FLAC (image+ ...
  • Stevie Ray Vaughan and Double Trouble / Pride And Joy [2007, Blues, DVD5]
  • (2009) Rihanna / Rated R (R`n`B) [APE (image+.cue)]
  • (2009, Cборник) Madonna / Greatest Hits [CD1 + CD2] (Pop) [APE (image+.cue) ...
  • (Дискография, 2005-2008) Ёлка (R&B, Reggae, Pop) [APE (image+.cue); FLAC (i ...
  • (1995) Юрий Шатунов / Ты помнишь... (Pop) [FLAC(image+.cue), lossless]
  • (1988) Fausto Papetti / Grand Collection (POP, Jazz) [FLAC (image+.cue), lo ...
  • (1995) Yaki-Da / Pride (Pop, Eurodance) [FLAC (image+.сue), lossless]
  • (2008) Студия 80 / Придуманный Мир (Pop) [FLAC (image+.cue), lossless]
  • Информация
    Посетители, находящиеся в группе Гости, не могут оставлять комментарии к данной публикации.