вход на сайт

Имя пользователя :
Пароль :

Восстановление пароля Регистрация
(2011) B.B. King / Icon (Blues) [FLAC (tracks+.cue), lossless]
Рейтинг:
(голосов: 1)



[img]{THEME}/images/logopost.png[/img]



B.B. King - Icon

Исполнитель: B.B. King
Альбом: Icon
Тип альбома: Compilation
Год выпуска: 2011
Жанр: Blues
Формат: FLAC (tracks+.cue)
Битрейт: lossless
Продолжительность: 00:51:57


Tреклист:
01. How Blue Can You Get? [0:02:41.56]
02. Every Day I Have the Blues [0:02:39.37]
03. Dont Answer the Door [0:05:10.00]
04. The Thrill Is Gone [0:05:25.50]
05. Hummingbird [0:04:34.32]
06. Aint Nobody Home [0:03:14.27]
07. Chains and Things [0:04:54.39]
08. Guess Who [0:04:07.51]
09. I Like to Live the Love [0:03:16.47]
10. Let the Good Times Roll [0:05:50.67]
11. Playin with My Friends [0:05:18.06]
12. Ill Survive [0:04:50.50]


"Лог создания рипа" ▼TextExact Audio Copy V1.0 beta 1 from 15. November 2010

EAC extraction logfile from 12. October 2011, 21:15

B.B. King / Icon

Used drive : PIONEER DVD-RW DVR-219L Adapter: 4 ID: 0

Read mode : Secure
Utilize accurate stream : Yes
Defeat audio cache : Yes
Make use of C2 pointers : No

Read offset correction : 6
Overread into Lead-In and Lead-Out : No
Fill up missing offset samples with silence : Yes
Delete leading and trailing silent blocks : No
Null samples used in CRC calculations : Yes
Used interface : Native Win32 interface for Win NT & 2000
Gap handling : Appended to previous track

Used output format : User Defined Encoder
Selected bitrate : 256 kBit/s
Quality : High
Add ID3 tag : No
Command line compressor : D:Exact Audio Copyflac.exe
Additional command line options : -8 -V -T "ARTIST=%a" -T "TITLE=%t" -T "ALBUM=%g" -T "DATE=%y" -T "TRACKNUMBER=%n" -T "TOTALTRACKS=%x" -T "GENRE=%m" -T "ALBUMARTIST=%v" -T "ALBUM ARTIST=%v" -T "COMMENT=EAC Secure Mode, Test & Copy, AccurateRip, FLAC -8" %s

TOC of the extracted CD

Track | Start | Length | Start sector | End sector
---------------------------------------------------------
1 | 0:00.00 | 2:41.56 | 0 | 12130
2 | 2:41.56 | 2:39.37 | 12131 | 24092
3 | 5:21.18 | 5:10.00 | 24093 | 47342
4 | 10:31.18 | 5:25.50 | 47343 | 71767
5 | 15:56.68 | 4:34.32 | 71768 | 92349
6 | 20:31.25 | 3:14.27 | 92350 | 106926
7 | 23:45.52 | 4:54.39 | 106927 | 129015
8 | 28:40.16 | 4:07.51 | 129016 | 147591
9 | 32:47.67 | 3:16.47 | 147592 | 162338
10&n
5e60142d22191fca289bb0a33ec57586e432e481(2011) B.B. King / Icon (Blues) [FLAC (tracks+.cue), lossless] (2011) B.B. King / Icon (Blues) [FLAC (tracks+.cue), lossless] " />

Аплоадер: Админ, дата: 29-03-2012, 14:29, торрент скачан: 359 раз

Понравилась раздача? Посмотрите эти:
  • (2013) Buddy Guy / Rhythm & Blues (2CD) (Blues) [FLAC (image+.cue), Lossles ...
  • (2010) Zaz / Zaz (Nu jazz, Chanson, Soul) [FLAC (tracks+.cue), lossless]
  • (2011) Hugh Laurie / Let Them Talk (Blues, Jazz) [FLAC (tracks+.cue), lossl ...
  • (2011) Disturbed / The Lost Children (Alternative Metal) [FLAC (tracks+.cue ...
  • (2011) Daughtry / Break the Spell (Deluxe Edition) (Alt. Rock / Modern Rock ...
  • (2011) Виктория - победительница / Victorious (OST) [FLAC (tracks+.cue), lo ...
  • (2012) Katie Melua / Secret Symphony (Jazz Pop, Vocal Jazz) [FLAC (tracks+. ...
  • (2012) Mark Lanegan Band / Blues Funeral (Alternative Rock/Blues Rock) [FLA ...
  • (2012) Yiruma / Stay In Memory (New Age, Instrumental, Neoclassical, Piano) ...
  • (2012, Сборник) VA / Saxophone Golden Best (Jazz, Smooth Jazz) [FLAC (track ...
  • (2008, Сборник) VA / Relax Piano - Yesterday - Trai Tim Mua Thu - Vol.7 (Ne ...
  • (2012) Tomandandy / Resident Evil: Retribution (Score, Soundtrack)[FLAC (tr ...
  • (2012) Usher / Looking 4 Myself (Deluxe Version) (R&B, Soul) [FLAC (tracks+ ...
  • (2011) Mistabishi / Trip (Drum & Bass, Breakbeat) [FLAC (tracks+.cue), loss ...
  • (2011) Ляпис Трубецкой / Веселые картинки (Rock) [FLAC (tracks+.cue), lossl ...
  • (2011) Scorpions / Comeblack (Hard Rock) [FLAC (tracks+.cue)lossless]
  • (2011) Дельфин / Существо (Alternative|Experimental) [FLAC (tracks+.cue), l ...
  • (2011) Ленинград / Хна (Rock) [FLAC (tracks+.cue), lossless]
  • (2012) Buckethead / Electric Sea (Experimental/Acoustic/Ambient/Rock) [FLAC ...
  • (2012) Les Friction / Les Friction (Alt. Rock/Neo-Classical/Orchestral) [FL ...
  • (2011) SeeS / The enD (Progressive/Math Metal) [FLAC (tracks+.cue), lossles ...
  • (2012) Our Lady Peace / Curve (Alternative/Rock) [FLAC (tracks+.cue), lossl ...
  • (2012) Nine Lashes / World We View (Alt.Rock/Alt.Metal/Christian) [FLAC (tr ...
  • (2011) Phinehas / Thegodmachine (Metalcore) [FLAC (tracks+.cue), lossless]
  • (2012) For Today / Immortal (Metalcore, Hardcore, Christian) [FLAC (tracks+ ...
  • Информация
    Посетители, находящиеся в группе Гости, не могут оставлять комментарии к данной публикации.