вход на сайт

Имя пользователя :
Пароль :

Восстановление пароля Регистрация
(1988) David Grisman Quintet feat. Svend Asmussen / Svingin With Svend (Jazz, Swing) [FLAC (tracks+.cue), lossless]
Рейтинг:
(голосов: 1)



[img]{THEME}/images/logopost.png[/img]



Исполнитель: David Grisman Quintet feat. Svend Asmussen
Альбом: Svingin With Svend
Тип альбома: Студийный
Год выпуска: 1988
Жанр: Jazz, Swing
Формат: FLAC (tracks+.cue)
Битрейт: lossless
Log-файл: Присутствует
Продолжительность: 00:54:01

Tреклист:
01. Svingin With Svend (4:04)
02. Nadja (6:23)
03. Lap-Nils Polska (8:24)
04. It Dont Mean A Thing (6:36)
05. Swing Mineur (6:39)
06. Jitterbug Waltz (6:23)
07. The Spirit Feel (9:29)
08. Nuages (6:02)

Лог создания рипа ▼TextEAC extraction logfile from 31. January 2006, 10:26 for CD
Grisman, David Quintet with Svend Asmussen / Svingin with Svend

Used drive : PLEXTOR DVDR PX-716A Adapter: 3 ID: 0
Read mode : Secure with NO C2, accurate stream, disable cache
Read offset correction : 30
Overread into Lead-In and Lead-Out : Yes

Used output format : C:Program FilesFLACflac.exe (User Defined Encoder)
192 kBit/s
Additional command line options : -5 -V -T "ARTIST=%a" -T "TITLE=%t" -T "ALBUM=%g" -T "DATE=%y" -T "TRACKNUMBER=%n" -T "GENRE=%m" -T "COMMENT=EAC Flac 1.1.2 -5" %s

Other options :
Fill up missing offset samples with silence : Yes
Delete leading and trailing silent blocks : No
Installed external ASPI interface

Track 1
Filename K:EACDavid Grisman Quintet featuring Svend Asmussen - Swingin with Svend (1987) [FLAC]�1 - Svingin With Svend.wav

Pre-gap length 0:00:02.00

Peak level 97.4 %
Track quality 100.0 %
Test CRC 2CFA8A19
Copy CRC 2CFA8A19
Copy OK

Track 2
Filename K:EACDavid Grisman Quintet featuring Svend Asmussen - Swingin with Svend (1987) [FLAC]�2 - Nadja.wav

Pre-gap length 0:00:01.06

Peak level 100.0 %
Track quality 99.9 %
Test CRC 00C5AB7C
Copy CRC 00C5AB7C
Copy OK

Track 3
Filename K:EACDavid Grisman Quintet featuring Svend Asmussen - Swingin with Svend (1987) [FLAC]�3 - Lap-Nils Polska.wav

Peak level 91.1 %
Track quality 99.9 %
Test CRC 44C79076
Copy CRC 44C79076
Copy OK

Track 4
Filename K:EACDavid Grisman Quintet featuring Svend Asmussen - Swingin with Svend (1987) [FLAC]�4 - It Dont Mean A Thing.wav

Pre-gap length 0:00:00.49

Peak level 99.9 %
Track quality 100.0 %
Test CRC 3950FD78
Copy CRC 3950FD78
Copy OK

Track 5
Filename K:EACDavid Grisman Quintet featuring Svend Asmussen - Swingin with Svend (1987) [FLAC]�5 - Swing Mineur.wav

Pre-gap length 0:00:00.69

Peak level 84.1 %
Track quality 99.9 %
Test CRC 39C4334A
Copy CRC 39C4334A
Copy OK

Track 6
Filename K:EACDavid Grisman Quintet featuring Svend Asmussen - Swingin with Svend (1987) [FLAC]�6 - Jitterbug Waltz.wav

Pre-gap length 0:00:01.16

Peak level 100.0 %
Track quality 100.0 %
Test CRC 8BCD4413
Copy CRC 8BCD4413
Copy OK

Track 7
&nbs
46abd5afe9944e58fe8688ff421d4405b07d191c(1988) David Grisman Quintet feat. Svend Asmussen / Svingin With Svend (Jazz, Swing) [FLAC (tracks+.cue), lossless] (1988) David Grisman Quintet feat. Svend Asmussen / Svingin With Svend (Jazz, Swing) [FLAC (tracks+.cue), lossless] " />

Аплоадер: Админ, дата: 27-03-2012, 00:33, торрент скачан: 359 раз

Понравилась раздача? Посмотрите эти:
  • (2013) Girls Generation (SNSD) - Galaxy Supernova / Galaxy Supernova (KPop) ...
  • (Jazz) Ray Charles — The Very Best Of Ray Charles - 2000, FLAC (tracks), lo ...
  • (Soundtrack,1999) Fight Club / Бойцовский клуб - The Dust Brothers [FLAC (t ...
  • (1999) Red Hot Chili Peppers - Californication (Alternative rock, Funk) [FL ...
  • (2009) The Black Eyed Peas / The E.N.D. (The Energy Never Dies) (Target Del ...
  • (2010 , OST) Пипец / Kick Ass (OST) [FLAC (tracks+.cue) lossless]
  • (2008) Karunesh /Enlightenment (New Age) [FLAC (image+.cue), lossless]
  • (2011) Orjan Nilsen / In My Opinion (Trance) [FLAC (tracks+.cue), lossless] ...
  • (2002) PPK (ППК) / ReLoad. Russian Trance (Trance) [FLAC (tracks+cue), loss ...
  • (2010, сборник) VA / CDeelder Box (Swing) [FLAC (tracks+.cue), lossless]
  • (2010) Ravenna / Debrief (Alt. Rock / Christian Rock / Indie) [FLAC (tracks ...
  • (1991, 4xCD Box Set) James Brown / Star Time (Funk, Soul, Blues, Disco) [FL ...
  • (2009) Timbaland / Shock Value II (Hip-Hop / RnB) [FLAC (tracks+.cue), loss ...
  • (2004-2006) Amy Winehouse (Rhythm & Blues/Neo-Soul, Ska, Jazz Pop) [FLAC(t ...
  • (2012) High Contrast / The Agony & The Ecstasy (Drum and Bass) [FLAC (track ...
  • (2006) The Rasmus / Shot (Single) (Alternative Rock) [FLAC (tracks+.cue), l ...
  • (2009) Miley Cyrus / The Time of Our Lives (Pop) [FLAC (tracks+.cue), lossl ...
  • (2010) [AMATORY] / Инстинкт обречённых (Nu Metal) [FLAC (tracks), lossless] ...
  • (2011) Linkin Park / Iridescent (Alternative Rock) [FLAC(image+.cue), lossl ...
  • (1999) Necrophagist / Onset Of Putrefaction (Technical Death Metal) [FLAC ( ...
  • (2011) This Will Destroy You / Tunnel Blanket (Post Rock) [FLAC (tracks+.cu ...
  • (2004) Дельфин / Запись концерта 19.11.04 (Alternative|Experimental) [FLAC ...
  • (Дискография, 2002 - 2012) Rodrigo y Gabriela (Acoustic, Flamenco, Classica ...
  • (2012) KoRn feat. Skrillex / Chaos Lives In Everything (UK Promo) (Nu-metal ...
  • (2011) Ink Stained Promises / Relations. (Metalcore, Hardcore) [FLAC (track ...
  • Информация
    Посетители, находящиеся в группе Гости, не могут оставлять комментарии к данной публикации.