вход на сайт

Имя пользователя :
Пароль :

Восстановление пароля Регистрация
(2010, сборник) VA / CDeelder Box (Swing) [FLAC (tracks+.cue), lossless]
Рейтинг:
(голосов: 1)



[img]{THEME}/images/logopost.png[/img]



Сборник
Исполнитель: VA
Название сборника: CDeelder Box
Год выпуска: 2010
Жанр: Swing
Формат: FLAC (tracks+.сue)
Битрейт: lossless
Продолжительность: 03:10:25


CD1 (FLAC|tracks+.cue) ▼
Продолжительность: 00:55:30

01 ... Roy Eldridge - Minor jive ... 04:21
02 ... Red Norvo - Russian lullaby ... 02:59
03 ... Chu Berry sextet - Blowin up a breeze ... 02:33
04 ... Vido Mussos all stars - Vido in a jam ... 03:01
05 ... Erskine Hawkins and his orchestra - Needle points ... 02:42
06 ... Fats Navarro with The Tadd Dameron quintet - Anthropology ... 03:40
07 ... Diz & Bird - Bloomdido ... 03:25
08 ... Art Farmer septet - Mau Mau ... 05:14
09 ... Sax Kari - Down for Debbie ... 02:39
10 ... Al Cohn - Inside out ... 06:47
11 ... Gene Krupa - Meddle my minor ... 03:04
12 ... Red Prysock - Jump Red jump ... 02:27
13 ... Clifford Brown - Delilah ... 08:07
14 ... Kenny Dorham - Minor Holiday ... 04:24
EAC log ▼TextExact Audio Copy V1.0 beta 1 from 15. November 2010
EAC extraction logfile from 6. March 2011, 20:39
Various / CDeelderbox CD1
Used drive : _NEC DVD_RW ND-3540A Adapter: 0 ID: 0
Read mode : Secure
Utilize accurate stream : Yes
Defeat audio cache : Yes
Make use of C2 pointers : No
Read offset correction : 48
Overread into Lead-In and Lead-Out : No
Fill up missing offset samples with silence : Yes
Delete leading and trailing silent blocks : No
Null samples used in CRC calculations : Yes
Used interface : Native Win32 interface for Win NT & 2000
Gap handling : Appended to previous track
Used output format : User Defined Encoder
Selected bitrate : 768 kBit/s
Quality : High
Add ID3 tag : No
Command line compressor : C:Program FilesExact Audio CopyFLACFLAC.EXE
Additional command line options : -V -8 -T "artist=%a" -T "title=%t" -T "album=%g" -T "date=%y" -T "tracknumber=%n" -T "genre=%m" %s
TOC of the extracted CD
Track | Start | Length | Start sector | End sector
---------------------------------------------------------
1 | 0:00.00 | 4:21.67 | 0 | 19641
2 | 4:21.67 | 2:59.71 | 19642 | 33137
3 | 7:21.63 | 2:33.37 | 33138 | 44649
4 | 9:55.25 | 3:01.43 | 44650 | 58267
5 | 12:56.68 | 2:42.30 | 58268 | 70447
6 | 15:39.23 | 3:40.60 | 70448 | 87007
7 | 19:20.08 | 3:25.18 | 87008 | 102400
8 | 22:45.26 | 5:14.26 | 102401 | 125976
9 | 27:59.52 | 2:39.49 | 125977 | 137950
10 | 30:39.26 | 6:47.53 | 137951 | 168528
11 | 37:27.04 | 3:04.03 | 168529 | 182331
12 | 40:31.07 | 2:27.62 | 182332 | 193418
13 | 42:58.69 | 8:07.01 | 193419 | 229944
14 | 51:05.70 | 4:24.61 | 229945 | 249805
Track 1
Filename d:tempVarious Artists - CDeelderbox CD11 - Roy Eldridge - Minor jive.wav
Pre-gap length 0:00:02.00
Peak level 96.5 %
Extraction speed 4.3 X
Track quality 100.0 %
Test CRC 907EFD32
Copy CRC 907EFD32
Track not present in AccurateRip database
Copy OK
Track 2
Filename d:tempVarious Artists - CDeelderbox CD12 - Red Norvo - Russian lullaby.wav
Pre-gap length 0:00:02.00
Peak level 97.7 %
Extraction speed 4.5 X
Track quality 100.0 %
Test CRC D4F4E9F8
Copy CRC D4F4E9F8
Track not present in AccurateRip database
Copy OK
Track 3
Filename d:tempVarious Artists - CDeelderbox CD13 - Chu Berry sextet - Blowin up a breeze.wav
Pre-gap length 0:00:02.00
Peak level 97.7 %
Extraction speed 4.7 X
Track quality 100.0 %
Test CRC A77FCD01
Copy CRC A77FCD01
Track not present in AccurateRip database
Copy OK
Track 4
Filename d:tempVarious Artists - CDeelderbox CD14 - Vido Mussos all stars - Vido in a jam.wav
Pre-gap length 0:00:02.00
Peak level 97.7 %
Extraction speed 5.1 X
Track quality 100.0 %
Test CRC 301BCF7F
Copy CRC 301BCF7F
Track not present in AccurateRip database
Copy OK
Track 5
Filename d:tempVarious Artists - CDeelderbox CD15 - Erskine Hawkins and his orchestra - Needle points.wav
Pre-gap length 0:00:02.00
Peak level 96.6 %
Extraction speed 5.2 X
Track quality 100.0 %
Test CRC 0D59EE03
Copy CRC 0D59EE03
Track not present in AccurateRip database
Copy OK
Track 6
Filenam
357c98b9345021611558b3855e6b4f2a6e4a3643(2010, сборник) VA / CDeelder Box (Swing) [FLAC (tracks+.cue), lossless] (2010, сборник) VA / CDeelder Box (Swing) [FLAC (tracks+.cue), lossless] " />

Аплоадер: Админ, дата: 27-01-2012, 21:16, торрент скачан: 359 раз

Понравилась раздача? Посмотрите эти:
  • (2013) Girls Generation (SNSD) - Galaxy Supernova / Galaxy Supernova (KPop) ...
  • (2009) The Black Eyed Peas / The E.N.D. (The Energy Never Dies) (Target Del ...
  • (2010) Zaz / Zaz (Nu jazz, Chanson, Soul) [FLAC (tracks+.cue), lossless]
  • (2011) Depeche Mode / Personal Jesus 2011 Club Promo (Electronic, Synthpop) ...
  • (2011) Orjan Nilsen / In My Opinion (Trance) [FLAC (tracks+.cue), lossless] ...
  • (2002) PPK (ППК) / ReLoad. Russian Trance (Trance) [FLAC (tracks+cue), loss ...
  • (2010) Ravenna / Debrief (Alt. Rock / Christian Rock / Indie) [FLAC (tracks ...
  • (1988) David Grisman Quintet feat. Svend Asmussen / Svingin With Svend (Jaz ...
  • (2011) B.B. King / Icon (Blues) [FLAC (tracks+.cue), lossless]
  • (2012, Сборник) VA / Saxophone Golden Best (Jazz, Smooth Jazz) [FLAC (track ...
  • (2012) High Contrast / The Agony & The Ecstasy (Drum and Bass) [FLAC (track ...
  • (2006) The Rasmus / Shot (Single) (Alternative Rock) [FLAC (tracks+.cue), l ...
  • (2009) Miley Cyrus / The Time of Our Lives (Pop) [FLAC (tracks+.cue), lossl ...
  • (2011) Linkin Park / Iridescent (Alternative Rock) [FLAC(image+.cue), lossl ...
  • (2011) Stargazery / Eye On The Sky (Heavy Metal) [FLAC (image+.cue), lossle ...
  • (2011) Rammstein / Mein Land (Neue Deutsche Harte, Industrial, Tanz-Metal) ...
  • (2011) This Will Destroy You / Tunnel Blanket (Post Rock) [FLAC (tracks+.cu ...
  • (2011) Florence & The Machine / Ceremonials (Deluxe Edition) (Indie/Alterna ...
  • (2012) KoRn feat. Skrillex / Chaos Lives In Everything (UK Promo) (Nu-metal ...
  • (2011) Ink Stained Promises / Relations. (Metalcore, Hardcore) [FLAC (track ...
  • Информация
    Посетители, находящиеся в группе Гости, не могут оставлять комментарии к данной публикации.