вход на сайт

Имя пользователя :
Пароль :

Восстановление пароля Регистрация
(2008) Юрий Наумов / Рок как будто Блюз (Blues) [FLAC (Image+.cue), lossless]
Рейтинг:
(голосов: 1)



[img]{THEME}/images/logopost.png[/img]



Исполнитель: Юрий Наумов
Альбом: Рок как будто Блюз
Страна: Россия
Тип альбома: Live
Год выпуска: 2008
Жанр: Blues
Формат: FLAC (image+.cue)
Битрейт: lossless
Продолжительность: 1:08:47

Tреклист:
1. Рок как будто Блюз (08:25)
2. Шкодный Блюз (03:10)
3. Никак не похоже на Блюз (04:48)
4. Звездная Ночь (04:06)
5. Ночь на Хайвее (06:41)
6. Вера (07:08)
7. Всемирный Закон Торможения (06:17)
8. Пинг-Понг Блюз (05:10)
9. Космос (10:57)
10. Рожден Чтоб Играть (08:11)
11. Седьмая Глава (03:54)

Лог создания рипа ▼Exact Audio Copy V0.99 prebeta 5 from 4. May 2009

EAC extraction logfile from 30. October 2009, 13:00

Yuri Naumov / Rock Like Blues

Used drive: Optiarc DVD+-RW AD-5540A Adapter: 1ID: 0

Read mode : Secure
Utilize accurate stream : Yes
Defeat audio cache: Yes
Make use of C2 pointers : No

Read offset correction: 48
Overread into Lead-In and Lead-Out: No
Fill up missing offset samples with silence : Yes
Delete leading and trailing silent blocks : No
Null samples used in CRC calculations : Yes
Used interface: Installed external ASPI interface

Used output format : Internal WAV Routines
Sample format: 44.100 Hz; 16 Bit; Stereo


TOC of the extracted CD

Track | Start|Length| Start sector | End sector
---------------------------------------------------------
1|0:00.00 |8:24.48 | 0|37847
2|8:24.48 |3:10.15 | 37848|52112
3| 11:34.63 |4:48.10 | 52113|73722
4| 16:22.73 |4:06.50 | 73723|92222
5| 20:29.48 |6:41.30 | 92223| 122327
6| 27:11.03 |7:08.09 |122328| 154436
7| 34:19.12 |6:16.62 |154437| 182698
8| 40:35.74 |5:10.40 |182699| 205988
9| 45:46.39 | 10:56.50 |205989| 255238
10| 56:43.14 |8:11.01 |255239| 292064
 
74572fa453021a01e87c4a0f4e327b75269d212d(2008) Юрий Наумов / Рок как будто Блюз (Blues) [FLAC (Image+.cue), lossless] (2008) Юрий Наумов / Рок как будто Блюз (Blues) [FLAC (Image+.cue), lossless] " />

Аплоадер: Админ, дата: 29-10-2011, 14:17, торрент скачан: 359 раз

Понравилась раздача? Посмотрите эти:
  • (1993) Mick Jagger / Wandring Spirit (Rock) [FLAC(image+.cue), lossless]
  • (1996) George Michael / Older (1st Press Japan) (Electronic, Pop/Rock) [FLA ...
  • (2013) Buddy Guy / Rhythm & Blues (2CD) (Blues) [FLAC (image+.cue), Lossles ...
  • (Дискография) ДЕЛЬФИН (DOLPHIN) (Alternative) [WavPack/image+cue, lossless] ...
  • (2007) GORILLAZ / D-Sides [Japan Edition] (Hip-Hop) [FLAC (image+cue), loss ...
  • (2008) Ассаи / Фаталист (Rap) [Ape(image+.cue), lossless]
  • (2008) Капа и Картель / Гламурным (Rap) [Ape(image+ cue), lossless]
  • (1989) Kaoma / Lambada (lambada / latin / ethnic) [FLAC (image+.cue), lossl ...
  • (2008) Pink / Funhouse (Pop) [FLAC (tracks) lossless]
  • (2010) Сергей Трофимов (Трофим) / Всё не важно (Шансон) [FLAC(image+.cue), ...
  • (2010) Ассаи / Лифт (Rap) [FLAC(image+.cue), lossless]
  • (2007) Константин Никольский / Иллюзии (Rock) [APE (image + .cue), lossless ...
  • (2009) D-Man 55 / 7.62 Б-30 (Rap) [FLAC (image+.cue) lossless]
  • (Дискография, 1988-2011) Kingdom Come (Hard&Heavy,Glam Metal) [FLAC (image+ ...
  • (2011) 3 Doors Down / Time Of My Life [Deluxe Edition] (Alternative Rock/Po ...
  • (1996) DJ Dado / The Album (Electronic, Dream trance) [FLAC (image+.сue), l ...
  • (1998) Roomful of Blues / There Goes The Neighborhood (Jump / Modern Electr ...
  • (2010) 2Pac / Greatest Hits (Rap & Hip Hop) [APE (image+.cue), lossless]
  • (2012) Сергей Васюта и Сладкий Сон / На белом покрывале января... (Pop) [Fl ...
  • (2004) Игорь Малинин / От Штирлица до Путина (Pop) [FLAC (image+.cue), los ...
  • (1993) Крис Кельми / Greatest Hits (Pop-Rock) [FLAC (image+.cue), lossless] ...
  • (2011) Yanni / Truth Of Touch (New Age) [FLAC (image+ .cue),lossless]
  • (2011) Стас Михайлов / Только ты (Шансон) [Flac(image+.cue)Lossless]
  • (2009) Чиж & Co / Лучшее. Золотая коллекция (Rock) [FLAC (image+.cue), loss ...
  • (2010) Татьяна Буланова / Романсы (Pop) [FLAC (image+.cue), lossless]
  • Информация
    Посетители, находящиеся в группе Гости, не могут оставлять комментарии к данной публикации.