вход на сайт

Имя пользователя :
Пароль :

Восстановление пароля Регистрация
(2011) VA / Bar Jazz (Swing, Vocal Jazz, Trad Jazz) [FLAC (image+.cue), lossless]
Рейтинг:
(голосов: 1)



[img]{THEME}/images/logopost.png[/img]



Исполнитель: VA
Альбом: Bar Jazz
Тип альбома: Compilation
Год выпуска: 2011
Жанр: Swing, Vocal Jazz, Trad Jazz
Формат: FLAC (image+.cue), lossless
Битрейт: lossless
Продолжительность: 55:17 / 62:32

Disc 1
Tреклист:
01. Swing Low, Sweet Chariot (Peggy Lee) (2:11)
02. Singin In The Rain (Dave Brubeck) (2:37)
03. Hallelujah, I Love Him So (Ella Fitzgerald) (2:27)
04. Music, Music, Music (Ray Charles) (2:55)
05. Smack Dab In The Middle (The Mills Brothers) (2:51)
06. If I Had You (Dinah Washington) (4:47)
07. Ive Got You Under My Skin (Stan Getz) (3:15)
08. Makin Whoopee (Frank Sinatra) (3:06)
09. All Of Me (Sarah Vaughan) (2:34)
10. Easy Listening Blues (Nat King Cole Trio) (3:04)
11. Cry Me A River (Julie London) (2:58)
12. That Old Feeling (Louis Armstrong and Oscar Peterson) (2:44)
13. Lover Man (Sarah Vaughan and Dizzy Gillespie Quintet) (3:23)
14. Two For The Blues (Frances Wayne) (2:41)
15. Lotus Blossom (Jimmy Witherspoon and Wilbur De Paris) (4:00)
16. April In Paris (Thelonious Monk) (3:20)
17. Lulus Back In Town (Mel Torme) (3:06)
18. Sweet Lorraine (Chet Baker) (3:19)

"Отчет EAC" ▼TextExact Audio Copy V0.99 prebeta 4 from 23. January 2008

Отчёт EAC об извлечении, выполненном 19. мая 2011, 16:12

Bar Jazz

Дисковод: _NEC DVD_RW ND-4550A Adapter: 3 ID: 0

Режим чтения : Достоверность
Использование точного потока : Да
Отключение кэша аудио : Да
Использование указателей C2 : Нет

Коррекция смещения при чтении : 48
Способность читать области Lead-in и Lead-out : Нет
Заполнение пропущенных сэмплов тишиной : Да
Удаление блоков с тишиной в начале и конце : Нет
При вычислениях CRC использовались нулевые сэмплы : Да
Интерфейс : Установленный внешний ASPI-интерфейс

Выходной формат : Пользовательский кодировщик
Выбранный битрейт : 1024 kBit/s
Качество : Высокий
Добавление ID3-тэга : Нет
Утилита сжатия : C:Program FilesExact Audio CopyFLACFLAC.EXE
Дополнительные параметры : -6 -V -T "ARTIST=%a" -T "TITLE=%t" -T "ALBUM=%g" -T "DATE=%y" -T "TRACKNUMBER=%n" -T "GENRE=%m" -T "COMMENT=%e" %s -o %d


TOC извлечённого CD

Трек | Старт | Длительность | Начальный сектор | Конечный сектор
---------------------------------------------------------------------
1 | 0:00.00 | 2:10.62 | 0 | 9811
2 | 2:10.62 | 2:36.60 | 9812 | 21571
3 | 4:47.47 | 2:27.06 | 21572 | 32602
4 | 7:14.53 | 2:55.37 | 32603 | 45764
5 | 10:10.15 | 2:50.44 | 45765 | 58558
6&n
709ee5866f7d7d6a0be0660f627fd20d3b65b44f(2011) VA / Bar Jazz (Swing, Vocal Jazz, Trad Jazz) [FLAC (image+.cue), lossless] (2011) VA / Bar Jazz (Swing, Vocal Jazz, Trad Jazz) [FLAC (image+.cue), lossless] " />

Аплоадер: Админ, дата: 1-07-2011, 15:28, торрент скачан: 359 раз

Понравилась раздача? Посмотрите эти:
  • (1993) Coverdale & Page / Coverdale & Page (EMI Holland)(Hard Rock) [FLAC ( ...
  • (2000) a-ha / Minor Earth | Major Sky (Alternative Rock, Synth-pop ) [FLAC ...
  • (2003) Eagles / The Very Best Of Eagles (Rock) ( 2CD Warner USA) [FLAC (ima ...
  • (2011, Сборник) VA / Cool Jazz - The Coolest Jazz Selection (2CD) (Cool Jaz ...
  • (2013, Сборник) VA / Bar Classics 9 (2CD) (Jazz, Vocal Jazz, Easy Listening ...
  • (2013) Loc-Dog & Tony VA / Все знают всё (Rap, Hip-Hop) [FLAC (Tracks+.Cue ...
  • (2013) Pinnick Gales Pridgen / Pinnick Gales Pridgen (Hard Rock, Heavy Blue ...
  • (2012) Рем Дигга / Черника (Rap) [FLAC (tracks+.cue), lossless]
  • (2010) Schiller / Breathless (Electronic) [FLAC (image+.cue), lossless]
  • (2004) ELLA FITZGERALD - The Best Of Ella Fitzgerald - Summertime(Vocal Jaz ...
  • (2010) БИ-2 / О чём говорят мужчины (Pop-Rock) [FLAC (image + .cue), lossle ...
  • (2011) ГРОТ / О Пути По Встречной (Rap) [FLAC (tracks+.cue), lossless]
  • (1997) Jazz Cafe / Simple Pleasures (Jazz, instrumental) [FLAC (image+.сue ...
  • (Дискография, 2006-2011) Светлана Копылова (Православная песня) [FLAC (imag ...
  • (2012) The Rasmus / The Rasmus (Alternative Rock/Melodic Rock) [FLAC (track ...
  • (2008) Фёдор Иванович Шаляпин / Песни и Романсы, 2CD (The Art of Feodor Sha ...
  • (1993) Mireille Mathieu / Chante Piaf (Pop) [FLAC (tracks+.cue), lossless]
  • (2012) The Blues Overdrive / The Blues Overdrive (Blues-Rock) [FLAC (image+ ...
  • (2012) Gary Clark Jr. / Blak and Blu (Blues, Rock) [FLAC (image+.cue), loss ...
  • (1986) Dark Angel / Darkness Descends (Thrash Metal) [FLAC (image+.cue), lo ...
  • (2011) Ассаи / ОМ (Rap) [FLAC (tracks+.cue), lossless]
  • (2012) Strange Contact / Retro (Synthpop) [FLAC (image+.сue), lossless]
  • (2012) Ария / Live In Studio (Heavy Metal) [FLAC (image+.сue), lossless]
  • (2008) Nirvana / The Best Of (Grunge, Alternative) [FLAC (image+.сue), loss ...
  • (2012) Walter Trout / Blues For The Modern Daze (Blues, Blues Rock) [FLAC ( ...
  • Информация
    Посетители, находящиеся в группе Гости, не могут оставлять комментарии к данной публикации.