вход на сайт

Имя пользователя :
Пароль :

Восстановление пароля Регистрация
(2007) VA / Coffee Time Jazz (Smooth Jazz, Big Band, Latin Jazz) [FLAC (image+.cue), lossless]
Рейтинг:
(голосов: 1)



[img]{THEME}/images/logopost.png[/img]



Исполнитель: VA
Альбом: Coffee Time Jazz
Тип альбома: Compilation
Год выпуска: 2007
Жанр: Smooth Jazz, Big Band, Latin Jazz
Формат: FLAC (image+.cue)
Битрейт: lossless
Продолжительность: 01:01:44

Tреклист:
01.Ella Fitzgerald - Black Coffee[03:30]
02.Noro Morales & His Orchestra - Isla Verde [02:38]
03.Paul Desmond - El Condor Pasa [03:06]
04.Lalo Schifrin - Rapaz De Bem [02:35]
05.Joe Henderson - Boto [06:37]
06.Les McCann - Guantanamera [02:56]
07.Cal Tjader - It Didnt End [03:58]
08.Kenyon Hopkins - Hard Latin [02:13]
09.Baja Marimba Band - Flyin High [02:08]
10.Chico OFarrill - A Man And A Woman [02:31]
11.Luiz Henrique - A Trip To Brazil [03:09]
12.Walter Wanderley - Amazonas [02:14]
13.Oscar Brown Jr. & Luiz Henrique - Barra Limpa [03:07]
14.El Chicano - Senor Blues [03:57]
15.Daniel Salinas - Baiao [04:03]
16.Ramsey Lewis Trio - Bold And Black [04:08]
17.Shirley Scott - Blue Bongo [03:04]
18.Rotary Connection ft. Minnie Ripperton - I Am The Black Gold Of The Sun [05:40]

"Отчет EAC" ▼TextExact Audio Copy V0.99 prebeta 4 from 23. January 2008

Отчёт EAC об извлечении, выполненном 5. марта 2010, 20:43

Coffee Time Jazz (Verve JazzClub)

Дисковод: TSSTcorpDVD+-RW TS-H553A Adapter: 0 ID: 2

Режим чтения : Достоверность
Использование точного потока : Да
Отключение кэша аудио : Да
Использование указателей C2 : Нет

Коррекция смещения при чтении : 6
Способность читать области Lead-in и Lead-out : Нет
Заполнение пропущенных сэмплов тишиной : Да
Удаление блоков с тишиной в начале и конце : Нет
При вычислениях CRC использовались нулевые сэмплы : Да
Интерфейс : Встроенный Win32-интерфейс для Win NT/2000

Выходной формат : Внутренние WAV-операции
Формат сэмплов : 44.100 Гц; 16 бит; стерео


TOC извлечённого CD

Трек | Старт | Длительность | Начальный сектор | Конечный сектор
---------------------------------------------------------------------
1 | 0:00.00 | 3:30.69 | 0 | 15818
2 | 3:30.69 | 2:38.09 | 15819 | 27677
3 | 6:09.03 | 3:06.12 | 27678 | 41639
4 | 9:15.15 | 2:35.18 | 41640 | 53282
5 | 11:50.33 | 6:37.05 | 53283 | 83062
6 | 18:27.38 | 2:56.13 | 83063 | 96275
7 | 21:23.51 | 3:58.52 | 96276 | 114177
8 | 25:22.28 | 2:13.04 | 114178 | 124156
9 | 27:35.32 |
97ccef3be40a313eb8557b8992c72a7ee75a35e4(2007) VA / Coffee Time Jazz (Smooth Jazz, Big Band, Latin Jazz) [FLAC (image+.cue), lossless] (2007) VA / Coffee Time Jazz (Smooth Jazz, Big Band, Latin Jazz) [FLAC (image+.cue), lossless] " />

Аплоадер: Админ, дата: 29-06-2011, 14:36, торрент скачан: 359 раз

Понравилась раздача? Посмотрите эти:
  • (2000) Lenny Kravitz / Greatest Hits (Rock, Funk) [FLAC (image+.cue), lossl ...
  • (2002) a-ha / Lifelines (Alternative Rock, Synth-pop ) [FLAC (image + .cue ...
  • (2011, Сборник) VA / Cool Jazz - The Coolest Jazz Selection (2CD) (Cool Jaz ...
  • (2011) Relaxing Instrumental Jazz Ensemble / Instrumental Music To Love, Sm ...
  • (2006, сборник) VA - The Greatest Jazz Hits (Jazz) [lossless, FLAC (tracks+ ...
  • (2004) ELLA FITZGERALD - The Best Of Ella Fitzgerald - Summertime(Vocal Jaz ...
  • (2008) VANESSA MAE / Star Mark Greatest Hits [2CD] (Neoclassical / Violin / ...
  • (1994) Joy / Grand Collection (EuroDisco) [FLAC (image+.cue) lossless]
  • (2006) Батырхан Шукенов/ Отан Ана (Pop) [FLAC (image+.cue) lossless]
  • (1958) Louis Armstrong / Louis And The Good Book [2001 Remaster] (Jazz, Go ...
  • (2011) Within Temptation / The Unforgiving (Symphonic Gothic Metal) [FLAC ( ...
  • (2011) VA / Bar Jazz (Swing, Vocal Jazz, Trad Jazz) [FLAC (image+.cue), los ...
  • (2011) Blues Cousins / KGB Blues (Blues Rock) [FLAC (image+.cue), lossless] ...
  • (1997) Jazz Cafe / Simple Pleasures (Jazz, instrumental) [FLAC (image+.сue ...
  • (Сборник, 2008) VA / Worlds Greatest Jazz Collection: Classic Jazz - From N ...
  • (2008, 3xCD Box Set) Nina Simone / To Be Free. The Nina Simone Story (Jazz, ...
  • (2002, Сборник) VA / The Very Best Of Smooth Jazz (2 CD) (Smooth Jazz, Sou ...
  • (2003) THE BLACK EYED PEAS / Elephunk (RnB) [Ape (image+.cue), lossless]
  • (2007) Smooth Jazz All Stars / Smooth Sax Tribute To Sade (Smooth Jazz) [МР ...
  • (2007, сборник) Azzurra Orchestra / Saxophone Hits (3CD Box) (Jazz-Pop, Smo ...
  • (1988) Fausto Papetti / Grand Collection (POP, Jazz) [FLAC (image+.cue), lo ...
  • (1995) Steve Morse Band / Structural Damage (Instrumental Rock/Blues Rock/J ...
  • (2000) Парк Горького (Gorky Park) / The Best (Glam Metal/Hard Rock) [FLAC ...
  • (2004) Ex-Сектор Газа / Огненный рай (Punk-Rock) [FLAC (image+.cue), lossle ...
  • (2008) Студия 80 / Придуманный Мир (Pop) [FLAC (image+.cue), lossless]
  • Информация
    Посетители, находящиеся в группе Гости, не могут оставлять комментарии к данной публикации.