вход на сайт

Имя пользователя :
Пароль :

Восстановление пароля Регистрация
(Дискография 2003-2005) Skalpel (Nu Jazz) [FLAC (tracks+.cue), lossless]
Рейтинг:
(голосов: 1)



[img]{THEME}/images/logopost.png[/img]



Дискография
Исполнитель: Skalpel
Жанр: Nu Jazz, Future Jazz, Fusion, Downtempo, Electronic
Страна: Poland
Оффициальный сайт: http://skalpelmusic.prv.pl/
Годы выпуска: 2003 - 2005
Формат: FLAC (tracks+.cue)
Битрейт: lossless
Продолжительность: 02:34:44

Об исполнителе: Skalpel - это компиляция электро-джаза и видео-авангарда. Дуэт двух польских диджеев-виртуозов Марчин Чихы (Marcin Cichy) и Игоря Пудло (Igor Pudlo). Творчество группы характеризует богатое наследие польского джаза, скомпилированного с невероятным количеством собственных сэмплов.

Альбомы:
2003 - Sculpture EP ▼

Тип альбома: EP
Год выпуска: 2003
Формат: FLAC (tracks+.cue)
Битрейт: lossless
Продолжительность: 28:10

Tреклист:
01. Break In (05:36)
02. Voice of Reason (04:01)
03. Sculpture (04:51)
04. Ninjazz (04:39)
05. Tension (03:39)
06. Enviromental Sounds (05:22)

Отчет EAC: ▼
TextExact Audio Copy V0.99 prebeta 5 from 4. May 2009

EAC extraction logfile from 26. October 2009, 19:05

Skalpel / Sculpture

Used drive : TSSTcorpCD/DVDW TS-L632D Adapter: 0 ID: 1

Read mode : Secure
Utilize accurate stream : Yes
Defeat audio cache : Yes
Make use of C2 pointers : No

Read offset correction : 6
Overread into Lead-In and Lead-Out : No
Fill up missing offset samples with silence : Yes
Delete leading and trailing silent blocks : No
Null samples used in CRC calculations : Yes
Used interface : Native Win32 interface for Win NT & 2000
Gap handling : Appended to previous track

Used output format : User Defined Encoder
Selected bitrate : 320 kBit/s
Quality : High
Add ID3 tag : No
Command line compressor : C:Program FilesExact Audio CopyFlac lac.exe
Additional command line options : -V -8 -T "artist=%a" -T "title=%t" -T "album=%g" -T "date=%y" -T "tracknumber=%n" -T "genre=%m" %s

TOC of the extracted CD

Track | Start | Length | Start sector | End sector
---------------------------------------------------------
1 | 0:00.00 | 5:36.24 | 0 | 25223
2 | 5:36.24 | 4:01.02 | 25224 | 43300
3 | 9:37.26 | 4:51.09 | 43301 | 65134
4 | 14:28.35 | 4:39.02 | 65135 | 86061
5 | 19:07.37 | 3:39.42 | 86062 | 102528
6 | 22:47.04 | 5:22.51 | 102529 | 126729
7 | 30:41.55 | 6:17.53 | 138130 | 166457

Track 1

Filename C:eac - Break In.wav

Pre-gap length 0:00:02.00

Peak level 99.9 %
Track quality 100.0 %
Test CRC
3a3ea94df165928925834e5c1aba062d115dfa46(Дискография 2003-2005) Skalpel (Nu Jazz) [FLAC (tracks+.cue), lossless] (Дискография 2003-2005) Skalpel (Nu Jazz) [FLAC (tracks+.cue), lossless] " />

Аплоадер: Админ, дата: 12-05-2011, 08:54, торрент скачан: 359 раз

Понравилась раздача? Посмотрите эти:
  • (2012) Lazlo / Lazlo (Electro Swing, Nu Jazz, Electronic) [FLAC (tracks+.cu ...
  • (2010) Вячеслав Бутусов и Ю-Питер / Цветы и Тернии (Rock) [FLAC (tracks + . ...
  • (2010) Zaz / Zaz (Nu jazz, Chanson, Soul) [FLAC (tracks+.cue), lossless]
  • (2011) Adele / 21 (Jazz, Lounge, Easy Listening) [FLAC (tracks + .cue), los ...
  • (2011) Hugh Laurie / Let Them Talk (Blues, Jazz) [FLAC (tracks+.cue), lossl ...
  • (Сборник, 2005-2007) Jens Gad (ex. Enigma) / 3 альбома (Downtempo, Ambient) ...
  • (2011) Daughtry / Break the Spell (Deluxe Edition) (Alt. Rock / Modern Rock ...
  • (2002) PPK (ППК) / ReLoad. Russian Trance (Trance) [FLAC (tracks+cue), loss ...
  • (2011) Виктория - победительница / Victorious (OST) [FLAC (tracks+.cue), lo ...
  • (2010) Ravenna / Debrief (Alt. Rock / Christian Rock / Indie) [FLAC (tracks ...
  • (2012) Katie Melua / Secret Symphony (Jazz Pop, Vocal Jazz) [FLAC (tracks+. ...
  • (2011) B.B. King / Icon (Blues) [FLAC (tracks+.cue), lossless]
  • (2012, Сборник) VA / Saxophone Golden Best (Jazz, Smooth Jazz) [FLAC (track ...
  • (1999) Muffler / Muffler (Drum & Bass) [FLAC (tracks+.cue), lossless]
  • (2006) The Rasmus / Shot (Single) (Alternative Rock) [FLAC (tracks+.cue), l ...
  • (2011) Linkin Park / Iridescent (Alternative Rock) [FLAC(image+.cue), lossl ...
  • (2011) Ляпис Трубецкой / Веселые картинки (Rock) [FLAC (tracks+.cue), lossl ...
  • (2011) Дельфин / Существо (Alternative|Experimental) [FLAC (tracks+.cue), l ...
  • (2011) Ленинград / Хна (Rock) [FLAC (tracks+.cue), lossless]
  • (2011) SeeS / The enD (Progressive/Math Metal) [FLAC (tracks+.cue), lossles ...
  • (2009) Exivious (Ex. Cynic) / Exivious (Progressive Metal/Death Metal) [FLA ...
  • (2012) KoRn feat. Skrillex / Chaos Lives In Everything (UK Promo) (Nu-metal ...
  • (2011) The Soulless / Isolated (Melodic Death Metal/Metalcore) [FLAC (track ...
  • (2011) Phinehas / Thegodmachine (Metalcore) [FLAC (tracks+.cue), lossless]
  • (2011) Ink Stained Promises / Relations. (Metalcore, Hardcore) [FLAC (track ...
  • Информация
    Посетители, находящиеся в группе Гости, не могут оставлять комментарии к данной публикации.