вход на сайт

Имя пользователя :
Пароль :

Восстановление пароля Регистрация
(2011) Adele / 21 (Jazz, Lounge, Easy Listening) [FLAC (tracks + .cue), lossless]
Рейтинг:
(голосов: 1)



[img]{THEME}/images/logopost.png[/img]



Исполнитель: Adele
Альбом: 21
Тип альбома: Студийный
Год выпуска: 2011
Жанр: Jazz, Lounge, Surf, Easy Listening
Формат: FLAC (tracks+.cue)
Битрейт: lossless
Продолжительность: 00:54:44

Tреклист:
1. Adele - Rolling In The Deep (3:49)
2. Adele - Rumor Has It (3:43)
3. Adele - Turning Tabels (4:10)
4. Adele - Dont You Remember (4:03)
5. Adele - Set Fire To The Rain (4:01)
6. Adele - He Wont Go (4:37)
7. Adele - Take It All (3:48)
8. Adele - Ill Be Waiting (4:01)
9. Adele - One And Only (5:48)
10. Adele - Lovesong (5:16)
11. Adele - Someone Like You (4:47)
12. Adele - If It Handnt Been For Love (3:08)
13. Adele - Hiding My Heart (3:28)

"Отчет EAC" ▼TextExact Audio Copy V1.0 beta 1 from 15. November 2010

EAC extraction logfile from 21. January 2011, 20:33

Adele / 21

Used drive : PIONEER DVD-RW DVR-218L Adapter: 3 ID: 0

Read mode : Secure
Utilize accurate stream : Yes
Defeat audio cache : Yes
Make use of C2 pointers : No

Read offset correction : 6
Overread into Lead-In and Lead-Out : No
Fill up missing offset samples with silence : Yes
Delete leading and trailing silent blocks : No
Null samples used in CRC calculations : Yes
Used interface : Native Win32 interface for Win NT & 2000
Gap handling : Appended to previous track

Used output format : User Defined Encoder
Selected bitrate : 256 kBit/s
Quality : High
Add ID3 tag : No
Command line compressor : C:Program Files (x86)FLAC lac.exe
Additional command line options : -8 -V -T "ARTIST=%a" -T "TITLE=%t" -T "ALBUM=%g" -T "DATE=%y" -T "TRACKNUMBER=%n" -T "GENRE=%m" %s

TOC of the extracted CD

Track | Start | Length | Start sector | End sector
---------------------------------------------------------
1 | 0:00.00 | 3:49.22 | 0 | 17196
2 | 3:49.22 | 3:43.20 | 17197 | 33941
3 | 7:32.42 | 4:10.10 | 33942 | 52701
4 | 11:42.52 | 4:03.15 | 52702 | 70941
5 | 15:45.67 | 4:01.52 | 70942 | 89068
6 | 19:47.44 | 4:37.71 | 89069 | 109914
7 | 24:25.40 | 3:48.16 | 109915 | 127030
8 | 28:13.56 | 4:01.49 | 127031 | 145154
9 | 32:15.30 | 5:48.12 | 145155 | 171266
10 | 38:03.42 | 5:16.33 | 171267 | 194999
11 | 43:20.00 | 4:47.04 |
fcce7346f01713e17305b5fd5571a77c0d3e5fce(2011) Adele / 21 (Jazz, Lounge, Easy Listening) [FLAC (tracks + .cue), lossless] (2011) Adele / 21 (Jazz, Lounge, Easy Listening) [FLAC (tracks + .cue), lossless] " />

Аплоадер: Админ, дата: 13-03-2011, 12:19, торрент скачан: 359 раз

Понравилась раздача? Посмотрите эти:
  • (2012) Lazlo / Lazlo (Electro Swing, Nu Jazz, Electronic) [FLAC (tracks+.cu ...
  • (2012, Сборник) VA / Vintage Cafe 1,2 (4xCD) (Lounge, Lo-Fi, Jazz Blends) [ ...
  • (2013, Сборник) VA / Bar Classics 9 (2CD) (Jazz, Vocal Jazz, Easy Listening ...
  • (2012, Сборник) VA / Bar Lounge Deluxe: The Greatest Midnight Jazz Classics ...
  • (2010) Zaz / Zaz (Nu jazz, Chanson, Soul) [FLAC (tracks+.cue), lossless]
  • (2008) Adele / 19 {2CD EXPANDED EDITION} (Blues / Funk / Gospel) [FLAC (tra ...
  • (2011) Hugh Laurie / Let Them Talk (Blues, Jazz) [FLAC (tracks+.cue), lossl ...
  • (2011) Daughtry / Break the Spell (Deluxe Edition) (Alt. Rock / Modern Rock ...
  • (2011) Виктория - победительница / Victorious (OST) [FLAC (tracks+.cue), lo ...
  • (2012) Katie Melua / Secret Symphony (Jazz Pop, Vocal Jazz) [FLAC (tracks+. ...
  • (2011) B.B. King / Icon (Blues) [FLAC (tracks+.cue), lossless]
  • (2012, Сборник) VA / The Best Of Lounge 4 (Lounge, Chillout, Jazzy, Downtem ...
  • (2012, Сборник) VA / Saxophone Golden Best (Jazz, Smooth Jazz) [FLAC (track ...
  • (2008, Сборник) VA / Relax Piano - Yesterday - Trai Tim Mua Thu - Vol.7 (Ne ...
  • [LP] (2011) Adele / 21 (2 CD) (XL Recordings LP; DMR) (R&B, Soul, Gospel, B ...
  • (2012) Sally Night / Love For Sale (Vocal Jazz) [FLAC (tracks+.cue), lossle ...
  • (2011) Ляпис Трубецкой / Веселые картинки (Rock) [FLAC (tracks+.cue), lossl ...
  • (2011) Gandharva / Lord of the Universe (New Age, Classical, Erhu) [FLAC (t ...
  • (2011) Дельфин / Существо (Alternative|Experimental) [FLAC (tracks+.cue), l ...
  • (2011) Ленинград / Хна (Rock) [FLAC (tracks+.cue), lossless]
  • (2011) SeeS / The enD (Progressive/Math Metal) [FLAC (tracks+.cue), lossles ...
  • (2011) Downhere / On The Altar Of Love (Alternative Rock/Christian Rock) [F ...
  • (2011) The Browning / Burn This World (Deathcore/Electronic) [FLAC (tracks+ ...
  • (2011) Phinehas / Thegodmachine (Metalcore) [FLAC (tracks+.cue), lossless]
  • (2011) Skindred / Union Black (Alternative Metal, Ragga-Metal) [FLAC (track ...
  • Информация
    Посетители, находящиеся в группе Гости, не могут оставлять комментарии к данной публикации.