вход на сайт

Имя пользователя :
Пароль :

Восстановление пароля Регистрация
(1958) Louis Armstrong / Louis And The Good Book [2001 Remaster] (Jazz, Gospel) [FLAC (tracks+.cue), lossless]
Рейтинг:
(голосов: 1)



[img]{THEME}/images/logopost.png[/img]



Исполнитель: Armstrong Louis
Альбом: Louis And The Good Book
Тип альбома: Студийный
Год выпуска: 2001
Жанр: Jazz, Gospel
Формат: FLAC (tracks)
Битрейт: lossless
Продолжительность: 01:02:33

Tреклист:
01 Nobody Knows the Trouble Ive Seen 03:02:69
02 Shadrack 02:46:87
03 Go Down, Moses 03:41:24
04 Rock My Soul 02:58:47
05 Ezekiel Saw De Wheel 02:33:56
06 On My Way 03:05:60
07 Down by the Riverside 03:10:67
08 Swing Low, Sweet Chariot 03:09:57
09 Sometimes I Feel Like a Motherless Child 03:29:87
10 Jonah and the Whale 02:39:96
11 Didnt It Rain 02:52:73
12 This Train 02:31:84

бонус-трэки:
13 Sit Down, Youre Rocking the Boat (Bonus Track) 03:18:07
14 Thats What the Man Said (Bonus Track) 02:58:96
15 Shadrack (Bonus Track) 02:36:27
16 Going to Shout All Over Gods Heaven (Bonus Track) 02:49:77
17 Nobody Knows the Trouble Ive Seen (Bonus Track) 03:12:93
18 Jonah and the Whale (Bonus Track) 02:49:89
19 Elder Eatmores Sermon on Throwing Stones (Bonus Track) 04:22:13
20 Elder Eatmores Sermon on Generosity (Bonus Track) 04:21:91


"Отчет EAC" ▼TextExact Audio Copy V0.99 prebeta 5 from 4. May 2009

Отчёт EAC об извлечении, выполненном 12. ноября 2009, 14:30

Louis Armstrong / Louis And The Good Book [2001 Remaster]

Дисковод: Optiarc DVD RW AD-7240S Adapter: 2 ID: 0

Режим чтения : Достоверность
Использование точного потока : Да
Отключение кэша аудио : Да
Использование указателей C2 : Нет

Коррекция смещения при чтении : 48
Способность читать области Lead-in и Lead-out : Нет
Заполнение пропущенных сэмплов тишиной : Да
Удаление блоков с тишиной в начале и конце : Нет
При вычислениях CRC использовались нулевые сэмплы : Да
Интерфейс : Установленный внешний ASPI-интерфейс
Обработка зазоров : Не обнаружено, добавлено к предыдущему треку

Выходной формат : Внутренние WAV-операции
Формат сэмплов : 44.100 Гц; 16 бит; стерео


TOC извлечённого CD

Трек | Старт | Длительность | Начальный сектор | Конечный сектор
---------------------------------------------------------------------
1 | 0:00.00 | 3:02.52 | 0 | 13701
2 | 3:02.52 | 2:46.65 | 13702 | 26216
3 | 5:49.42 | 3:41.18 | 26217 | 42809
4 | 9:30.60 | 2:58.35 | 42810 | 56194
5 | 12:29.20 | 2:33.42 | 56195 | 67711
6 | 15:02.62 | 3:05.45 | 67712 | 81631
7 | 18:08.32 | 3:10.50 | 81632 | 95931
&n
bd2faee228462b1d3482baba10f9841fd4eff64f(1958) Louis Armstrong / Louis And The Good Book [2001 Remaster] (Jazz, Gospel) [FLAC (tracks+.cue), lossless] (1958) Louis Armstrong / Louis And The Good Book [2001 Remaster] (Jazz, Gospel) [FLAC (tracks+.cue), lossless] " />

Аплоадер: Админ, дата: 10-01-2011, 14:46, торрент скачан: 359 раз

Понравилась раздача? Посмотрите эти:
  • (2008) Ella Fitzgerald & Louis Armstrong / Autumn In New York (Vocal Jazz) ...
  • (15 шт.) Louis Armstrong / Луи Армстронг - альбомы 1923-1968 годов [192 MP3 ...
  • (Дискография) Louis Armstrong | Луи Армстронг [Jazz, Blues] [MP3, 160-192|C ...
  • (2008) Ella Fitzgerald & Louis Armstrong / Autumn In New York (Vocal Jazz) ...
  • (Jazz) LOUIS ARMSTRONG — Louis Armstrongs All Time Greatest Hits — 2003, F ...
  • (1999, сборник) VA / Romantic Collection(Pok) [FLAC (track+.cue) lossless]
  • (1998) The Ventures & The Shadows / Grand Collection(Instrumental, Guit ...
  • (2008) ST / Сто из Ста (Rap) [FLAC(track+.cue), lossless]
  • (2003) Joe Dassin / Grand Collection (PopMusic, Chanson) [FLAC (track+ cue) ...
  • (2006) Батырхан Шукенов/ Отан Ана (Pop) [FLAC (image+.cue) lossless]
  • (2010) ДеЦлЪ / Здесь И Сейчас (Rap) [FLAC(track+.cue), lossless]
  • (2010) Loc-Dog / Паранойя (Rap) [FLAC (track+.cue), lossless]
  • (1984) Boney M / Ten Thousand Lightyears (Disco) [APE (image+.cue) lossles ...
  • (2011) VA / Bar Jazz (Swing, Vocal Jazz, Trad Jazz) [FLAC (image+.cue), los ...
  • (2002, Сборник) VA / The Very Best Of Smooth Jazz (2 CD) (Smooth Jazz, Sou ...
  • (2012) Serebro / Mama Lover (Монолит) (Pop) [FLAC (image+.cue), lossless]
  • (2012) The Rasmus / The Rasmus (Tour Edition) FLAC (tracks+.cue), lossless
  • ( 2001) Воскресение / Звездная коллекция (Rock) [FLAC (image+.cue) lossless ...
  • (2011) Iron Savior / The Landing (Limited Edition) (Power/Heavy Metal) [FL ...
  • (1988) Fausto Papetti / Grand Collection (POP, Jazz) [FLAC (image+.cue), lo ...
  • Информация
    Посетители, находящиеся в группе Гости, не могут оставлять комментарии к данной публикации.