вход на сайт

Имя пользователя :
Пароль :

Восстановление пароля Регистрация
(Дискография, 10CD) Django Reinhardt – Джанго Рейнхардт (Jean Baptiste Reinhardt) / Djangology (Swing, Gypsy, Jazz) [FLAC (tracks+.cue), lossless, 1936 – 1948]
Рейтинг:
(голосов: 1)



[img]{THEME}/images/logopost.png[/img]



Дискография — Джанго Рейнхардт (10 CD)

Исполнитель: Джанго Рейнхардт (Django Reinhardt / Jean Baptiste Reinhardt)
Жанр: Jazz, Swing, Gypsy-Jazz
Лейбл: EMI#7806602-7806692
Формат: FLAC (tracks+.cue)
Битрейт: lossless
Год выпуска сета: 1992
Продолжительность: 11:35:23.427 часов (1840003116 samples)
Обложки: полностью включены, JPG 300 dpi 24b
О музыканте: Джанго Рейнхардт (цыг. Django Reinhardt; настоящее имя Жан Батист Ренарт, 23 января 1910 — 16 мая 1953) — джазмен-гитарист, один из основателей уникального стиля в гитарном джазе под названием «джаз-мануш», или «цыганский джаз». В среде джазменов его называли «Великий Джанго». / via Ru.wiki /

[Vol. 01] Georgia on my mind
раскрыть ▼

Тип альбома: студийный
Формат: FLAC (tracks)
Битрейт: lossless
Год: 1936 - 1937
Продолжительность: 74:02 минуты

Tреклист:
01. Ise A Muggin (3:06)
02. I Cant Give You Anything But Love (3:22)
03. Oriental Shuffle (2:40)
04. After YouGone (3:06)
05. Are You In The Mood (2:49)
06. Limehouse Blue (2:46)
07. Nagasaki (2:50)
08. Swing Guitars (2:25)
09. Georgia On My Mind (3:14)
10. Shine (2:56)
11. In The Still Of The Night (3:05)
12. Sweet Chorus (2:45)
13. Exactly Like You (2:29)
14. Charleston (2:52)
15. Youre Driving Me Crazy (2:54)
16. Tears (2:37)
17. Solitude (3:09)
18. Hot Lips (3:04)
19. Aint Misbehavin (2:54)
20. Rose Room (2:44)
21. Body and Soul (3:26)
22. When Day Is Gone (3:12)
23. Running Wild (Course mouvementee) (2:55)
24. Chicago (3:26)
25. Liebestraum, No 3 (3:18)
Отчет EAC ▼
TextExact Audio Copy V0.99 prebeta 4 from 23. January 2008
EAC extraction logfile from 31. August 2008, 19:30
Django Reinhardt / Djangology
Used drive : MS Adapter: 1 ID: 0
Read mode : Secure
Utilize accurate stream : Yes
Defeat audio cache : Yes
Make use of C2 pointers : No
Read offset correction : 30
Overread into Lead-In and Lead-Out : No
Fill up missing offset samples with silence : Yes
Delete leading and trailing silent blocks : No
Null samples used in CRC calculations : Yes
Used interface : Native Win32 interface for Win NT & 2000
Gap handling : Appended to previous track
Used output format : User Defined Encoder
Selected bitrate : 768 kBit/s
Quality : High
Add ID3 tag : No
Command line compressor : C:Program FilesExact Audio CopyFLACFLAC.EXE
Additional command line options : -6 -V -T "ARTIST=%a" -T "TITLE=%t" -T "ALBUM=%g" -T "DATE=%y" -T "TRACKNUMBER=%n" -T "GENRE=%m" -T "COMMENT=%e" %s -o %d
TOC of the extracted CD
Track | Start | Length | Start sector | End sector
---------------------------------------------------------
1 | 0:00.00 | 3:06.35 | 0 | 13984
2 | 3:06.35 | 3:22.05 | 13985 | 29139
3 | 6:28.40 | 2:39.45 | 29140 | 41109
4 | 9:08.10 | 3:06.17 | 41110 | 55076
5 | 12:14.27 | 2:48.50 | 55077 | 67726
6 | 15:03.02 | 2:45.63 | 67727 | 80164
7 | 17:48.65 | 2:49.40 | 80165 | 92879
8 | 20:38.30 | 2:24.67 | 92880 | 103746
9 | 23:03.22 | 3:13.53 | 103747 | 118274
10 | 26:17.00 | 2:55.45 | 118275 | 131444
11 | 29:12.45 | 3:04.42 | 131445 | 145286
12 | 32:17.12 | 2:44.53 | 145287 | 157639
13 | 35:01.65 | 2:29.10 | 157640 | 168824
14 | 37:31.00 | 2:52.20 | 168825 | 181744
15 | 40:23.20 | 2:54.12 | 181745 | 194806
16 | 43:17.32 | 2:37.35 | 194807 | 206616
17 | 45:54.67 | 3:08.55 | 206617 | 220771
18 | 49:03.47 | 3:04.23 | 220772 | 234594
19 | 52:07.70 | 2:53.40 | 234595 | 247609
20 | 55:01.35 | 2:44.22 | 247610 | 259931
21 | 57:45.57 | 3:25.70 | 259932 | 275376
22 | 61:11.52 | 3:12.05 | 275377 | 289781
23 | 64:23.57 | 2:54.68 | 289782 | 302899
24 | 67:18.50 | 3:25.47 | 302900 | 318321
25 | 70:44.22 | 3:18.30 | 318322 | 333201
Track 1
Filename C:Documents and SettingsAdministratorDesktopDjango Reinhardt Djangology1 - Ise A Muggin.wav
Pre-gap length 0:00:02.00
Peak level 68.7 %
Track quality 100.0 %
Copy CRC 60FD10ED
Track not present in AccurateRip database
Copy OK
Track 2
Filename C:Documents and SettingsAdministratorDesktopDjango Reinhardt Djangology2 - I Ca
fc885d85cf3cd40466aaaf882a37c9f7c4882269(Дискография, 10CD) Django Reinhardt – Джанго Рейнхардт (Jean Baptiste Reinhardt) / Djangology (Swing, Gypsy, Jazz) [FLAC (tracks+.cue), lossless, 1936 – 1948] (Дискография, 10CD) Django Reinhardt – Джанго Рейнхардт (Jean Baptiste Reinhardt) / Djangology (Swing, Gypsy, Jazz) [FLAC (tracks+.cue), lossless, 1936 – 1948] " />

Аплоадер: Админ, дата: 1-11-2010, 00:02, торрент скачан: 359 раз

Понравилась раздача? Посмотрите эти:
  • (2012) Lazlo / Lazlo (Electro Swing, Nu Jazz, Electronic) [FLAC (tracks+.cu ...
  • (2010) Zaz / Zaz (Nu jazz, Chanson, Soul) [FLAC (tracks+.cue), lossless]
  • (2011) Adele / 21 (Jazz, Lounge, Easy Listening) [FLAC (tracks + .cue), los ...
  • (Дискография 2003-2005) Skalpel (Nu Jazz) [FLAC (tracks+.cue), lossless]
  • (2011) Hugh Laurie / Let Them Talk (Blues, Jazz) [FLAC (tracks+.cue), lossl ...
  • (Дискография, 1994-2011) Cake (Indie Rock) [FLAC (tracks+.cue), losslesss]
  • (2002) PPK (ППК) / ReLoad. Russian Trance (Trance) [FLAC (tracks+cue), loss ...
  • (2011) Виктория - победительница / Victorious (OST) [FLAC (tracks+.cue), lo ...
  • (2010) Ravenna / Debrief (Alt. Rock / Christian Rock / Indie) [FLAC (tracks ...
  • (2012) Katie Melua / Secret Symphony (Jazz Pop, Vocal Jazz) [FLAC (tracks+. ...
  • (2011) B.B. King / Icon (Blues) [FLAC (tracks+.cue), lossless]
  • (2012, Сборник) VA / Saxophone Golden Best (Jazz, Smooth Jazz) [FLAC (track ...
  • (2012) Sally Night / Love For Sale (Vocal Jazz) [FLAC (tracks+.cue), lossle ...
  • (2011) Linkin Park / Iridescent (Alternative Rock) [FLAC(image+.cue), lossl ...
  • (2011) Ляпис Трубецкой / Веселые картинки (Rock) [FLAC (tracks+.cue), lossl ...
  • (2011) Scorpions / Comeblack (Hard Rock) [FLAC (tracks+.cue)lossless]
  • (2011) Дельфин / Существо (Alternative|Experimental) [FLAC (tracks+.cue), l ...
  • (2011) Ленинград / Хна (Rock) [FLAC (tracks+.cue), lossless]
  • (2012) Les Friction / Les Friction (Alt. Rock/Neo-Classical/Orchestral) [FL ...
  • (2011) SeeS / The enD (Progressive/Math Metal) [FLAC (tracks+.cue), lossles ...
  • (2011) Downhere / On The Altar Of Love (Alternative Rock/Christian Rock) [F ...
  • (2009) Exivious (Ex. Cynic) / Exivious (Progressive Metal/Death Metal) [FLA ...
  • (2012) KoRn feat. Skrillex / Chaos Lives In Everything (UK Promo) (Nu-metal ...
  • (2011) Phinehas / Thegodmachine (Metalcore) [FLAC (tracks+.cue), lossless]
  • (2011) Ink Stained Promises / Relations. (Metalcore, Hardcore) [FLAC (track ...
  • Информация
    Посетители, находящиеся в группе Гости, не могут оставлять комментарии к данной публикации.