вход на сайт

Имя пользователя :
Пароль :

Восстановление пароля Регистрация
(2010) Katie Melua / The House ( jazz-pop, vocal jazz) [FLAC (tracks + .cue), lossless]
Рейтинг:
(голосов: 1)



[img]{THEME}/images/logopost.png[/img]



Исполнитель: Katie Melua
Альбом: The House
Жанр: jazz-pop, vocal jazz
Год выпуска: 24 May 2010
Label:Dramatico
Формат: FLAC (tracks + .cue)
Битрейт: lossless
Продолжительность: 00:45:45

Прослушать, ознакомиться

Трэклист:
01. Id Love To Kill You (02:58)
02. The Flood (04:04)
03. A Happy Place (03:27)
04. A Moment Of Madness (03:47)
05. Red Balloons (04:20)
06. Tiny Alien (04:36)
07. No Fear Of Heights (02:54)
08. The One I Love Is Gone (03:39)
09. Plague Of Love (03:26)
10. God On The Drums, Devil On The Bass (03:48)
11. Twisted (03:44)
12. The House (05:01)

Log XLD:▼
X Lossless Decoder version 20100518 (120.3)

XLD extraction logfile from 2010-05-19 16:08:25 +0200

Katie Melua / The House

Used drive : PHILIPS SPD3400CC (revision JP03)

Use cdparanoia mode : YES (CDParanoia III 10.2 engine)
Disable audio cache : OK for the drive with cache less than 2750KB
Make use of C2 pointers : NO
Read offset correction: 6
Max retry count : 100

TOC of the extracted CD
Track | Start|Length| Start sector | End sector
---------------------------------------------------------
1| 00:00:00 | 02:57:38 | 0|13312
2| 02:57:38 | 04:03:53 | 13313|31590
3| 07:01:16 | 03:27:16 | 31591|47131
4| 10:28:32 | 03:47:34 | 47132|64190
5| 14:15:66 | 04:20:09 | 64191|83699
6| 18:36:00 | 04:36:01 | 83700| 104400
7| 23:12:01 | 02:53:67 |104401| 117442
8| 26:05:68 | 03:38:46 |117443| 133838
9| 29:44:39 | 03:26:33 |133839| 149321
10| 33:10:72 | 03:48:32 |149322| 166453
11| 36:59:29 | 03:44:25 |166454| 183278
12| 40:43:54 | 05:00:61 |183279| 205839

Track 01
Filename : /01 - Id Love To Kill You.flac

Pre-gap length : 00:02:00

CRC32 hash (test run): 060E3226
CRC32 hash : 060E3226
CRC32 hash (skip zero) : CCB187BE
AccurateRip signature: 090A5FFE
->Track not present in
e97bc1fbbca6735afc01a082ae28a8aef054e503(2010) Katie Melua / The House ( jazz-pop, vocal jazz) [FLAC (tracks + .cue), lossless] (2010) Katie Melua / The House ( jazz-pop, vocal jazz) [FLAC (tracks + .cue), lossless] " />

Аплоадер: Админ, дата: 20-05-2010, 16:39, торрент скачан: 359 раз

Понравилась раздача? Посмотрите эти:
  • (2013) Kanye West | Yeezus (Rap|Experimental Hip-Hop) [FLAC (tracks+.cue), ...
  • (2013) VA / Dalla in Jazz (Jazz, Vocal Jazz) [FLAC (tracks+.cue), lossless] ...
  • (2013, Сборник) VA / Bar Classics 9 (2CD) (Jazz, Vocal Jazz, Easy Listening ...
  • (2013) Patricia Barber / Smash (Vocal Jazz, Contemporary Jazz) [FLAC (track ...
  • (2008) Katie Melua / The Katie Melua Collection (Blues/Jazz) [MP3, 256/CBR] ...
  • (2012) VA / Voices Of Love (Jazz, Vocal Jazz) [Mp3 (tracks), 320/CBR]
  • (2012) Katie Melua / Secret Symphony (2CD) (Special Bonus Edition) (Jazz Po ...
  • (2010) Faithless / Not Going Home (Trance/House) [FLAC (tracks), lossless]
  • (2010) Zaz / Zaz (Nu jazz, Chanson, Soul) [FLAC (tracks+.cue), lossless]
  • (2011) Adele / 21 (Jazz, Lounge, Easy Listening) [FLAC (tracks + .cue), los ...
  • (2011) Sade / The Ultimate Collection ( Soul, Smooth-Jazz, Pop) [FLAC (trac ...
  • (2010) Sungha Jung / Perfect Blue (Acoustic, Fingerstyle Guitar) [FLAC (tra ...
  • (2012) Katie Melua / Secret Symphony (Jazz Pop, Vocal Jazz) [FLAC (tracks+. ...
  • (2012) Norah Jones / Little Broken Hearts (Vocal Jazz, Alternative Rock) [F ...
  • (2009) Paul Cardall / Sacred Piano (New Age) [FLAC (tracks+.cue), lossless] ...
  • (2012) Sally Night / Love For Sale (Vocal Jazz) [FLAC (tracks+.cue), lossle ...
  • (2012) Holly Cole / Night (Vocal Jazz) [FLAC (tracks+.cue), lossless]
  • (2010) Enduser / 1-3 (DnB, Dubstep, Breakcore) [FLAC (tracks+.cue), lossles ...
  • (2010) Sade / Soldier Of Love ( jazz, soul, blues) [FLAC (tracks) lossless] ...
  • (2012) The Fray / Scars & Stories (Alternative/Rock/Piano Rock) [FLAC (trac ...
  • (2012) Unheilig / Lichter der Stadt (Limited Edition, 2CD) (Industrial, Got ...
  • (2012) Young Guns / Bones (Alternative Rock) [FLAC (tracks +.cue), lossless ...
  • (2012) Switchfoot / Vice Re-Verses (Remixes) (Alternative, Christian Rock, ...
  • (2011) 7eventh Time Down / Alive In You (Alternative Rock/Modern Rock/Chris ...
  • (2012) Guillaume Perret & The Electric Epic / Guillaume Perret & The Electr ...
  • Информация
    Посетители, находящиеся в группе Гости, не могут оставлять комментарии к данной публикации.