вход на сайт

Имя пользователя :
Пароль :

Восстановление пароля Регистрация
(1996) John Scofield / Quiet (Jazz, Fusion, Guitar Jazz) [FLAC (image+.cue) lossless]
Рейтинг:
(голосов: 1)



[img]{THEME}/images/logopost.png[/img]



Исполнитель: John Scofield
Альбом: Quiet
Тип альбома: Студийный (LP)
Год выпуска: 1996
Жанр: Jazz, Fusion, Guitar Jazz
Формат: FLAC (image+.cue)
Битрейт: lossless
Продолжительность: 00:51:11

Треклист:
[05:28] 01. After The Fact
[05:02] 02. Tulle
[06:52] 03. Away With Words
[06:26] 04. Hold That Thought
[05:51] 05. Door
[06:48] 06. Bedside Manner
[05:28] 07. Rolf And The Gang
[05:39] 08. But for Love
[03:34] 09. Away

Отчет EAC:
▼Exact Audio Copy V0.99 prebeta 4 from 23. January 2008

EAC Auslese-Logdatei vom 12. April 2009, 1:09

John Scofield / Quiet

Benutztes Laufwerk : AlViDrv BDDVDROM Adapter: 2ID: 0

Lesemodus: Sicher
Benutze Accurate Stream: Ja
Audio Puffer abgeschaltet: Ja
Benutze C2 Fehlerinformationen : Nein

Leseoffset Korrektur : 102
Ьberlesen in das Lead-In und Lead-Out: Nein
Fьlle fehlende Offsetsample mit Stille auf : Ja
Lцsche fьhrende und nachfolgende stille Blцcke : Nein
Null Samples gehen in CRC Berechnungen ein : Ja
Benutzte Schnittstelle : Natьrliche Win32 Schnittstelle fьr Win NT/2000/XP

Benutztes Ausgabeformat: Benutzerdefinierter Komprimierer
Gewдhlte Bitrate : 768 kBit/s
Qualitдt : Hoch
Fьge ID3 Tag hinzu : Nein
Kommandozeilen Komprimierer: C:Program FilesExact Audio CopyFLACFLAC.EXE
Zusдtzliche Kommandozeilenoptionen : -6 -V -T "ARTIST=%a" -T "TITLE=%t" -T "ALBUM=%g" -T "DATE=%y" -T "TRACKNUMBER=%n" -T "GENRE=%m" -T "COMMENT=%e" %s -o %d


TOC der ausgelesenen CD

Track | Start| Lдnge| Startsektor | Endsektor
-------------------------------------------------------
1|0:00.00 |5:28.23 |0| 24622
2|5:28.23 |5:02.33 |24623| 47305
3| 10:30.56 |6:52.24 |47306| 78229
4| 17:23.05 |6:26.28 |78230|107207
5| 23:49.33 |5:51.54 | 107208|133586
6| 29:41.12 |6:48.01 | 133587|164187
7| 36:29.13 | 
a536f0d03f09032c8d86814209410196cb62d66e(1996) John Scofield / Quiet (Jazz, Fusion, Guitar Jazz) [FLAC (image+.cue) lossless] (1996) John Scofield / Quiet (Jazz, Fusion, Guitar Jazz) [FLAC (image+.cue) lossless] " />

Аплоадер: Админ, дата: 5-02-2010, 21:37, торрент скачан: 359 раз

Понравилась раздача? Посмотрите эти:
  • (2012) The Bryan Ferry Orchestra / The Jazz Age (Jazz) [FLAC (image+.cue), ...
  • (2011, Сборник) VA / Blue Note Jazz Inspiration - Best Of Bar Jazz (Vocal J ...
  • (2011, Сборник) VA / Cool Jazz - The Coolest Jazz Selection (2CD) (Cool Jaz ...
  • (2013, Сборник) VA / Bar Classics 9 (2CD) (Jazz, Vocal Jazz, Easy Listening ...
  • (2012) Matt Bianco / Hideaway (Japan CD) (Smooth Jazz, Fusion, Latin-Pop) [ ...
  • (2012) John Di Martinos Romantic Jazz Trio / The Beatles In Jazz 2 (Jazz, P ...
  • (2007) Video Kids / The Invasion Of The Spacepeckers (Disco) [APE (image+.c ...
  • ( 2001) Ottawan / D.I.S.C.O. & II (Disco) [APE (image+.cue), lossless]
  • (2008) The Magic Of Nomads / Bulbul Zaman (folk-ethnic / smooth jazz / inst ...
  • (1999) PUHDYS / 20 Hits aus 30 Jahren (69-99) (Rock) [FLAC (tracks + cue) l ...
  • (2010) Zaz / Zaz (Nu jazz, Chanson, Soul) [FLAC (tracks+.cue), lossless]
  • (2011) Adele / 21 (Jazz, Lounge, Easy Listening) [FLAC (tracks + .cue), los ...
  • (Дискография 2003-2005) Skalpel (Nu Jazz) [FLAC (tracks+.cue), lossless]
  • (2011) Sade / The Ultimate Collection ( Soul, Smooth-Jazz, Pop) [FLAC (trac ...
  • (2011) Hugh Laurie / Let Them Talk (Blues, Jazz) [FLAC (tracks+.cue), lossl ...
  • (2011) VA / Bar Jazz (Swing, Vocal Jazz, Trad Jazz) [FLAC (image+.cue), los ...
  • (1997) Jazz Cafe / Simple Pleasures (Jazz, instrumental) [FLAC (image+.сue ...
  • (2012, Сборник) VA / Saxophone Golden Best (Jazz, Smooth Jazz) [FLAC (track ...
  • (2012) Jessy Carolina and The Hot Mess / Bootlegs: January 2012 (Vocal Jazz ...
  • (2011) Sam Levine / Smooth Sax Romance (Smooth Jazz) [FLAC (image+.cue), lo ...
  • (2012) Shilts / All Grown Up (Smooth, Jazz-Pop) [FLAC (tracks+.cue), lossle ...
  • (2010) Sade / Soldier Of Love ( jazz, soul, blues) [FLAC (tracks) lossless] ...
  • (Дискография, 1986-2009) John Scofield (Contemporary jazz, Post-bop, Fusion ...
  • (2007, 4xCD Box Set) VA / Simply Brazil (Bossa Nova, Brazilian Jazz, Samba ...
  • (2012) John McLaughlin And The 4th Dimension / Now Here This (Fusion, Jazz- ...
  • Информация
    Посетители, находящиеся в группе Гости, не могут оставлять комментарии к данной публикации.